<?xml version="1.0" standalone="no"?>
<!DOCTYPE svg PUBLIC "-//W3C//DTD SVG 1.1//EN" "http://www.w3.org/Graphics/SVG/1.1/DTD/svg11.dtd" >
<svg xmlns="http://www.w3.org/2000/svg">
<metadata>Generated by IcoMoon</metadata>
<defs>
<font id="icomoon" horiz-adv-x="1024">
<font-face units-per-em="1024" ascent="960" descent="-64" />
<missing-glyph horiz-adv-x="1024" />
<glyph unicode="&#x20;" horiz-adv-x="512" d="" />
<glyph unicode="&#xe800;" glyph-name="facebook" d="M512-32c-265.088 0-480 214.912-480 480s214.912 480 480 480c265.088 0 480-214.912 480-480s-214.912-480-480-480zM523.605 711.040c-108.416 0-83.712-128.619-87.317-175.531 0-0.341-66.283 0-66.283 0v-87.275h66.091v-307.093h109.803l-0.235 307.093h73.557l14.421 87.765-87.744-0.96c0 62.293-4.821 87.637 31.595 87.637 3.264 0 56.512 0.107 56.512 0.107l0.107 88.256h-110.507z" />
<glyph unicode="&#xe801;" glyph-name="googleplus" horiz-adv-x="1044" d="M522.12-31.636c-264.746 0-479.381 214.635-479.381 479.381s214.635 479.381 479.381 479.381c264.746 0 479.381-214.635 479.381-479.381s-214.635-479.381-479.381-479.381zM442.202 724.272c-73.356 0-106.913-19.537-129.198-38.606-19.431-19.41-45.317-48.407-44.593-96.238 0-41.355 30.574-113.027 117.949-113.39 5.753 0.362 9.225 0.128 22.882 1.193-4.666-10.781-6.711-17.492-7.074-27.548 0-18.344 6.605-31.17 21.348-48.428-42.079-4.325-95.94-6.605-136.655-33.557-65.92-40.289-58.974-88.59-58.974-87.865 5.049-106.082 158.579-103.908 158.11-103.205 123.212 1.214 185.424 69.010 185.424 136.89 0 36.518-14.573 70.267-56.013 100.18-18.174 16.533-44.764 26.249-44.657 50.324 0 43.869 80.77 53.328 80.77 138.232-2.834 64.77-46.511 92.68-52.093 96.281 1.172 0 44.785-0.043 44.785-0.043l46.255 25.78c0 0-147.543 0-148.267 0zM805.125 660.206h-67.582v67.603h-45.083v-67.603h-67.603v-45.062h67.603v-67.603h45.083v67.603h67.582v45.062zM414.803 495.491c-61.489 3.388-81.644 94.555-81.644 94.555s-23.905 107.701 62.298 108.66c67.305 7.265 90.358-96.238 90.358-96.238s24.395-106.976-71.012-106.976zM527.063 284.265c-1.79-2.876 8.267-73.228-106.785-77.553-123.702 2.173-126.343 80.557-126.343 87.737-0.511 81.729 109.618 85.777 137.955 86.672 24.459-3.111 94.321-43.677 95.173-96.856z" />
<glyph unicode="&#xe802;" glyph-name="youtube" d="M512-32c-265.088 0-480 214.912-480 480 0 265.109 214.912 480 480 480s480-214.891 480-480c0-265.088-214.912-480-480-480zM386.432 187.691c0 0 1.003-27.691 20.459-27.691 19.477 0 44.416 20.715 44.416 20.715l-0.235-17.728h32.171v189.397h-31.936l0.256-145.728c0 0-9.941-15.168-22.699-15.168-10.987-2.581-8 20.416-8 20.416v139.477h-34.923l0.491-163.691zM262.677 380.331h36.928v-216.085h39.424v216.085h39.424v36.437h-115.285l-0.491-36.437zM383.445 736.64l-27.456-108.288-29.44 108.288h-42.411l49.643-166.187-0.235-107.776 42.411 1.003v108.288l48.896 164.672h-41.408zM479.765 668.779c-51.669 0-51.904-48.917-51.904-48.917l-2.005-107.776c0 0 1.579-53.248 54.976-53.248s54.571 51.243 54.571 51.243l0.256 110.784c0 0-4.245 47.915-55.893 47.915zM549.632 333.909v82.859h-33.451v-253.013h33.451v15.957c0 0 18.965-19.712 34.667-19.712 32.939 0 31.189 36.672 31.189 36.672v118.784c0 0-0.235 39.168-28.181 39.168-24.448 0-37.675-20.715-37.675-20.715zM671.381 665.792h-35.925l-0.256-154.709c0 0-7.061-16.981-23.701-16.981-10.517-0.597-9.216 26.965-9.216 26.965l-0.256 145.707h-36.437l0.747-179.648c0 0-2.944-48.533 48.661-18.965 17.195 11.776 21.205 15.211 21.205 15.211v-21.205l35.179 0.512v203.115zM696.341 353.387c-54.4 0-52.395-53.909-52.395-53.909v-88.832c0 0-0.256-49.899 51.392-49.899 44.672 0 50.901 42.432 50.901 42.432l-0.235 24.939-34.688-0.491v-18.965c0 0 0.747-17.963-17.472-17.963-15.979 0-15.467 19.456-15.467 19.456v40.427h68.373l0.235 51.904c0 0 3.755 50.901-50.645 50.901zM678.229 279.765c0 0-6.101 42.923 16.875 42.923 22.208 0 15.957-42.923 15.957-42.923h-32.832zM581.056 206.912c0 0 2.005-15.211-14.464-15.211-10.475 0-17.472 9.963-17.472 9.963v111.787c0 0 5.248 10.987 18.475 10.987 16.213 0 13.461-22.464 13.461-22.464v-95.061zM480.832 494.101c-19.285 0-18.283 22.208-18.283 22.208v99.819c0 0 1.728 19.456 17.451 19.456 17.728 0 18.816-20.459 18.816-20.459l-0.085-101.056c0 0-0.256-19.968-17.899-19.968z" />
<glyph unicode="&#xe803;" glyph-name="star" d="M1024 562.95l-353.78 51.408-158.22 320.582-158.216-320.582-353.784-51.408 256-249.538-60.432-352.352 316.432 166.358 316.432-166.358-60.434 352.352 256.002 249.538zM512 206.502l-223.462-117.48 42.676 248.83-180.786 176.222 249.84 36.304 111.732 226.396 111.736-226.396 249.836-36.304-180.788-176.222 42.678-248.83-223.462 117.48z" />
<glyph unicode="&#xe804;" glyph-name="star2" d="M1024 562.95l-353.78 51.408-158.22 320.582-158.216-320.582-353.784-51.408 256-249.538-60.432-352.352 316.432 166.358 316.432-166.358-60.434 352.352 256.002 249.538zM512 206.502l-0.942-0.496 0.942 570.768 111.736-226.396 249.836-36.304-180.788-176.222 42.678-248.83-223.462 117.48z" />
<glyph unicode="&#xe805;" glyph-name="star3" d="M1024 562.95l-353.78 51.408-158.22 320.582-158.216-320.582-353.784-51.408 256-249.538-60.432-352.352 316.432 166.358 316.432-166.358-60.434 352.352 256.002 249.538z" />
<glyph unicode="&#xe900;" glyph-name="pencil" d="M864 960c88.364 0 160-71.634 160-160 0-36.020-11.91-69.258-32-96l-64-64-224 224 64 64c26.742 20.090 59.978 32 96 32zM64 224l-64-288 288 64 592 592-224 224-592-592zM715.578 596.422l-448-448-55.156 55.156 448 448 55.156-55.156z" />
<glyph unicode="&#xe901;" glyph-name="coin" d="M480 896c-265.096 0-480-214.904-480-480 0-265.098 214.904-480 480-480 265.098 0 480 214.902 480 480 0 265.096-214.902 480-480 480zM480 32c-212.078 0-384 171.922-384 384s171.922 384 384 384c212.078 0 384-171.922 384-384s-171.922-384-384-384zM512 448v128h128v64h-128v64h-64v-64h-128v-256h128v-128h-128v-64h128v-64h64v64h128.002l-0.002 256h-128zM448 448h-64v128h64v-128zM576.002 256h-64.002v128h64.002v-128z" />
<glyph unicode="&#xe902;" glyph-name="phone" d="M704 320c-64-64-64-128-128-128s-128 64-192 128-128 128-128 192 64 64 128 128-128 256-192 256-192-192-192-192c0-128 131.5-387.5 256-512s384-256 512-256c0 0 192 128 192 192s-192 256-256 192z" />
<glyph unicode="&#xe903;" glyph-name="envelope" d="M928 832h-832c-52.8 0-96-43.2-96-96v-640c0-52.8 43.2-96 96-96h832c52.8 0 96 43.2 96 96v640c0 52.8-43.2 96-96 96zM398.74 409.628l-270.74-210.892v501.642l270.74-290.75zM176.38 704h671.24l-335.62-252-335.62 252zM409.288 398.302l102.712-110.302 102.71 110.302 210.554-270.302h-626.528l210.552 270.302zM625.26 409.628l270.74 290.75v-501.642l-270.74 210.892z" />
<glyph unicode="&#xe904;" glyph-name="calendar" d="M320 576h128v-128h-128zM512 576h128v-128h-128zM704 576h128v-128h-128zM128 192h128v-128h-128zM320 192h128v-128h-128zM512 192h128v-128h-128zM320 384h128v-128h-128zM512 384h128v-128h-128zM704 384h128v-128h-128zM128 384h128v-128h-128zM832 960v-64h-128v64h-448v-64h-128v64h-128v-1024h960v1024h-128zM896 0h-832v704h832v-704z" />
<glyph unicode="&#xe905;" glyph-name="user" d="M622.826 257.264c-22.11 3.518-22.614 64.314-22.614 64.314s64.968 64.316 79.128 150.802c38.090 0 61.618 91.946 23.522 124.296 1.59 34.054 48.96 267.324-190.862 267.324s-192.45-233.27-190.864-267.324c-38.094-32.35-14.57-124.296 23.522-124.296 14.158-86.486 79.128-150.802 79.128-150.802s-0.504-60.796-22.614-64.314c-71.22-11.332-337.172-128.634-337.172-257.264h896c0 128.63-265.952 245.932-337.174 257.264z" />
<glyph unicode="&#xe906;" glyph-name="users" d="M734.994 154.626c-18.952 2.988-19.384 54.654-19.384 54.654s55.688 54.656 67.824 128.152c32.652 0 52.814 78.138 20.164 105.628 1.362 28.94 41.968 227.176-163.598 227.176-205.564 0-164.958-198.236-163.598-227.176-32.654-27.49-12.488-105.628 20.162-105.628 12.134-73.496 67.826-128.152 67.826-128.152s-0.432-51.666-19.384-54.654c-61.048-9.632-289.006-109.316-289.006-218.626h768c0 109.31-227.958 208.994-289.006 218.626zM344.054 137.19c44.094 27.15 97.626 52.308 141.538 67.424-15.752 22.432-33.294 52.936-44.33 89.062-15.406 12.566-27.944 30.532-35.998 52.602-8.066 22.104-11.122 46.852-8.608 69.684 1.804 16.392 6.478 31.666 13.65 45.088-4.35 46.586-7.414 138.034 52.448 204.732 23.214 25.866 52.556 44.46 87.7 55.686-6.274 64.76-39.16 140.77-166.454 140.77-205.564 0-164.958-198.236-163.598-227.176-32.654-27.49-12.488-105.628 20.162-105.628 12.134-73.496 67.826-128.152 67.826-128.152s-0.432-51.666-19.384-54.654c-61.048-9.634-289.006-109.318-289.006-218.628h329.596c4.71 3.074 9.506 6.14 14.458 9.19z" />
<glyph unicode="&#xe907;" glyph-name="earth" d="M874.040 810.038c96.702-96.704 149.96-225.28 149.96-362.040s-53.258-265.334-149.96-362.038c-96.706-96.702-225.28-149.96-362.040-149.96s-265.334 53.258-362.040 149.96c-96.702 96.704-149.96 225.278-149.96 362.038s53.254 265.336 149.96 362.040c96.706 96.704 225.28 149.962 362.040 149.962s265.334-53.258 362.040-149.962zM828.784 131.214c63.058 63.060 104.986 141.608 122.272 227.062-13.474-19.836-26.362-27.194-34.344 17.206-8.22 72.39-74.708 26.148-116.516 51.86-44.004-29.658-142.906 57.662-126.098-40.824 25.934-44.422 140.008 59.45 83.148-34.542-36.274-65.616-132.642-210.932-120.106-286.258 1.582-109.744-112.134-22.884-151.314 13.52-26.356 72.92-8.982 200.374-77.898 236.086-74.802 3.248-139.004 10.046-167.994 93.67-17.446 59.828 18.564 148.894 82.678 162.644 93.85 58.966 127.374-69.054 215.39-71.434 27.328 28.594 101.816 37.686 107.992 69.75-57.75 10.19 73.268 48.558-5.528 70.382-43.47-5.112-71.478-45.074-48.368-78.958-84.238-19.642-86.936 121.904-167.91 77.258-2.058-70.59-132.222-22.886-45.036-8.572 29.956 13.088-48.86 51.016-6.28 44.124 20.916 1.136 91.332 25.812 72.276 42.402 39.21 24.34 72.16-58.29 110.538 1.882 27.708 46.266-11.62 54.808-46.35 31.356-19.58 21.924 34.57 69.276 82.332 89.738 15.918 6.82 31.122 10.536 42.746 9.484 24.058-27.792 68.55-32.606 70.878 3.342-59.582 28.534-125.276 43.608-193.292 43.608-97.622 0-190.47-31.024-267.308-88.39 20.65-9.46 32.372-21.238 12.478-36.296-15.456-46.054-78.17-107.876-133.224-99.124-28.586-49.296-47.412-103.606-55.46-160.528 46.112-15.256 56.744-45.45 46.836-55.55-23.496-20.488-37.936-49.53-45.376-81.322 15.010-91.836 58.172-176.476 125.27-243.576 84.616-84.614 197.118-131.214 316.784-131.214 119.664 0 232.168 46.6 316.784 131.214z" />
<glyph unicode="&#xe908;" glyph-name="air" d="M439.718 954.98c-210.322-33.129-374.463-183.718-425.663-390.024-15.561-62.745-15.561-171.169 0-233.914 47.184-190.243 190.745-333.804 380.988-380.988 62.745-15.561 171.169-15.561 233.914 0 190.243 47.184 333.804 190.745 380.988 380.988 15.561 62.745 15.561 171.169 0 233.914-46.682 187.231-187.733 331.294-371.953 377.976-54.212 14.055-148.58 19.576-198.275 12.047zM570.227 786.824c12.047-7.027 28.11-22.086 36.141-34.133 32.125-46.18 195.765-385.004 209.82-434.196 36.141-123.482-85.333-223.875-203.796-168.659-18.071 8.533-47.686 28.612-66.761 44.173l-34.133 29.114-29.616-27.608c-16.565-15.561-44.675-35.137-62.745-44.173-74.29-36.141-157.114-13.553-196.769 54.212-19.075 33.129-22.086 85.835-6.525 128 14.055 38.149 89.851 199.78 152.094 322.761 63.247 125.49 90.855 151.090 156.11 145.569 13.553-1.004 33.631-7.529 46.18-15.059zM483.388 751.184c-8.533-4.518-21.584-16.565-28.612-27.106-16.565-25.098-111.937-215.843-164.141-328.784-37.145-80.816-41.663-93.365-42.165-120.471 0-35.137 10.039-56.22 39.153-79.31 15.561-13.051 24.596-16.063 51.2-17.569 41.161-2.51 73.788 11.545 115.451 50.196l29.616 27.608-28.612 42.667c-79.812 119.467-72.282 217.851 18.573 252.486 73.286 28.11 153.6-27.106 153.6-105.412 0-48.69-28.11-115.451-70.275-168.659l-14.557-18.573 25.6-25.098c14.055-14.055 38.651-32.125 54.212-40.659 76.298-40.659 157.114 1.506 157.114 82.322 0 20.58-7.027 39.655-35.639 103.906-48.188 106.416-159.624 328.784-175.184 349.365-22.588 30.118-53.71 38.651-85.333 23.090zM478.369 503.216c-48.69-29.616-44.675-90.353 11.545-177.192l22.588-35.137 17.569 24.596c47.686 66.761 64.251 132.016 42.165 166.651-18.573 29.616-63.247 39.655-93.867 21.082z" />
<glyph unicode="&#xe909;" glyph-name="trip" d="M426.667 952.471c-277.584-47.184-466.322-312.722-418.635-590.306 52.706-307.2 367.937-498.447 662.086-400.565 310.212 103.404 447.247 460.8 284.612 741.898-107.42 185.224-318.243 284.612-528.063 248.973zM608.878 656.314c56.722-10.039 92.361-23.592 117.459-45.176l20.58-17.569h125.49l-15.059-28.11-15.561-28.11 15.561-31.122c27.608-54.714 32.627-94.369 18.071-144.063-15.561-52.706-48.69-92.361-98.886-118.463-21.082-11.043-34.635-13.553-71.278-15.561-55.216-2.51-89.851 8.533-131.012 42.165-15.059 12.047-27.106 20.58-27.106 18.573 0-2.51-7.529-16.063-17.067-30.62l-16.565-26.604-19.075 27.608c-10.541 15.561-20.078 28.11-21.584 28.11-1.004 0-10.039-7.027-20.078-15.561-10.039-9.035-30.62-22.086-46.18-29.114-24.094-11.545-34.133-13.051-77.804-13.051s-53.71 1.506-78.808 13.553c-38.149 17.569-71.278 52.204-90.855 93.365-14.055 29.616-16.063 38.651-16.063 76.298s2.008 46.682 16.565 77.302c8.533 18.573 16.063 38.149 16.063 42.667s-6.525 20.078-14.557 34.635l-14.557 26.102h125.992l18.573 17.067c22.588 20.078 64.251 37.145 115.451 45.678 52.204 9.035 150.588 9.035 202.29 0zM287.624 556.424c-45.176-14.557-74.29-40.157-93.867-83.325-34.133-73.788 0.502-162.635 76.8-197.773 31.624-14.055 84.831-14.055 116.455 0.502 53.71 24.094 85.333 70.275 88.847 128 3.514 61.239-26.604 115.451-80.314 142.557-30.118 15.561-77.804 20.078-107.922 10.039zM378.478 487.655c24.094-16.565 39.153-45.176 39.153-74.29 0-78.808-91.859-119.969-148.078-66.761-21.082 19.576-28.612 37.647-28.612 66.259 0 14.055 3.012 31.624 7.027 39.153 9.035 17.067 32.125 39.153 48.188 45.678 20.58 9.035 62.243 3.514 82.322-10.039zM291.639 460.549c-43.671-37.145-23.592-101.396 33.631-106.918 20.58-2.008 26.102 0 40.157 11.545 20.58 17.569 30.118 46.682 21.082 67.765-16.063 39.153-63.749 53.208-94.871 27.608zM653.553 556.424c-41.161-13.553-70.776-38.149-90.353-75.796-11.545-21.584-13.553-31.122-13.553-67.765 0-34.635 2.008-46.682 11.545-63.749 29.114-55.216 75.294-84.329 134.024-84.329 81.318 0.502 142.557 58.227 147.075 139.043 2.51 43.169-8.031 76.298-35.137 106.918-38.149 43.169-102.4 62.243-153.6 45.678zM726.337 497.694c17.067-6.525 40.157-27.608 49.694-45.678 4.016-7.529 7.027-25.098 7.027-39.153 0-79.31-90.353-119.969-147.075-66.259-21.082 19.576-28.612 37.647-28.612 66.259s7.529 46.682 28.612 66.259c24.094 23.090 59.231 30.62 90.353 18.573zM658.071 460.047c-20.58-17.067-28.612-46.18-19.075-68.267 10.541-24.596 25.6-35.137 52.706-38.149 20.58-1.506 26.102 0 39.655 11.043 32.627 27.608 34.133 66.259 3.514 92.863-23.090 20.58-54.212 21.584-76.8 2.51z" />
<glyph unicode="&#xe90a;" glyph-name="cleaning" horiz-adv-x="652" d="M197.818 685.382h23.273v-193.164h-23.273v193.164zM335.127 685.382h23.273v-193.164h-23.273v193.164zM209.455 697.018h137.309v-23.273h-137.309v23.273zM209.455 601.6h137.309v-23.273h-137.309v23.273zM202.596 504.422l14.799-17.96-165.228-136.152-14.799 17.96 165.228 136.152zM32.582 357.236h23.273v-370.036h-23.273v370.036zM44.218-1.164h463.127v-23.273h-463.127v23.273zM493.382 357.236h23.273v-370.036h-23.273v370.036zM354.427 504.196l159.227-136.083-15.12-17.692-159.227 136.083 15.12 17.692zM160.582 927.418h414.255v-23.273h-414.255v23.273zM493.382 915.782h23.273v-181.527h-23.273v181.527zM453.818 836.655h118.691v-23.273h-118.691v23.273zM170.093 778.752l49.336-87.063-20.247-11.473-49.336 87.063 20.247 11.473zM109.382 785.455h48.873v-23.273h-48.873v23.273zM102.4 852.945h-23.273c0 41.891 37.236 76.8 81.455 76.8v-23.273c-32.582-2.327-58.182-25.6-58.182-53.527zM109.382 762.182c-30.255 0-32.582 74.473-32.582 90.764h23.273c0-39.564 6.982-65.164 11.636-67.491 0 0-2.327 0-2.327 0v-23.273zM358.4 685.382h-23.273c0 83.782 53.527 151.273 118.691 151.273v-23.273c-53.527 0-95.418-55.855-95.418-128zM572.509 610.909c-111.709 0-202.473 81.455-202.473 179.2h23.273c0-86.109 81.455-155.927 179.2-155.927v-23.273zM572.509 610.909c-44.218 0-79.127 55.855-79.127 125.673h23.273c0-55.855 25.6-102.4 55.855-102.4v-23.273zM621.382 883.2h-23.273c0 11.636-11.636 20.945-25.6 20.945v23.273c27.927 0 48.873-18.618 48.873-44.218zM572.509 813.382v23.273c11.636 0 25.6 18.618 25.6 46.545h23.273c0-37.236-20.945-69.818-48.873-69.818zM183.855 252.509c-55.855 0-153.6 9.309-153.6 48.873h23.273c0 0 0 0 0 0 2.327-6.982 44.218-25.6 130.327-25.6v-23.273zM183.855 252.509v23.273c48.873 0 79.127 6.982 83.782 11.636 0 0-2.327-2.327-2.327-4.655h23.273c0-25.6-65.164-30.255-104.727-30.255zM286.255 278.109c0 0 2.327 2.327 2.327 4.655h-23.273c0 20.945 44.218 30.255 134.982 30.255v-23.273c-67.491 0-107.055-6.982-114.036-11.636zM516.655 264.145h-23.273c0 6.982-32.582 25.6-95.418 25.6v23.273c60.509 0 118.691-16.291 118.691-48.873z" />
<glyph unicode="&#xe90b;" glyph-name="internet" horiz-adv-x="1252" d="M45.511 641.422l-22.756 19.911c110.933 128 267.378 256 603.022 256v-28.444c-324.267 0-475.022-125.156-580.267-247.467zM1206.044 641.422c-105.244 122.311-258.844 247.467-580.267 247.467v28.444c335.644 0 492.089-130.844 603.022-256l-22.756-19.911zM1018.311 476.444c-71.111 91.022-173.511 184.889-392.533 184.889v28.444c230.4 0 338.489-99.556 415.289-196.267l-22.756-17.067zM233.244 476.444l-22.756 17.067c76.8 96.711 184.889 196.267 415.289 196.267v-28.444c-219.022 0-321.422-93.867-392.533-184.889zM847.644 342.756c-39.822 45.511-99.556 91.022-221.867 91.022v28.444c133.689 0 199.111-51.2 241.778-99.556l-19.911-19.911zM403.911 342.756l-19.911 19.911c45.511 48.356 108.089 99.556 241.778 99.556v-28.444c-122.311 0-182.044-45.511-221.867-91.022zM625.778-18.489c-71.111 0-130.844 59.733-130.844 130.844s59.733 130.844 130.844 130.844 130.844-59.733 130.844-130.844-59.733-130.844-130.844-130.844zM625.778 211.911c-56.889 0-102.4-45.511-102.4-102.4s45.511-102.4 102.4-102.4c56.889 0 102.4 45.511 102.4 102.4s-45.511 102.4-102.4 102.4z" />
<glyph unicode="&#xe90c;" glyph-name="hairdryer" horiz-adv-x="1280" d="M48.356 661.333h-28.444c0 150.756 136.533 273.067 301.511 273.067v-28.444c-147.911 0-273.067-108.089-273.067-244.622zM324.267 351.289c-167.822 0-301.511 139.378-301.511 310.044h28.444c0-153.6 122.311-281.6 273.067-281.6v-28.444zM227.556-4.267h-28.444c0 241.778-22.756 392.533-39.822 406.756 0 0 2.844 0 2.844 0v28.444c62.578 0 65.422-361.244 65.422-435.2zM324.267 516.267v28.444c51.2 0 93.867 54.044 93.867 116.622h28.444c-2.844-79.644-56.889-145.067-122.311-145.067zM443.733 661.333h-28.444c0 48.356-42.667 88.178-93.867 88.178v28.444c68.267 0 122.311-51.2 122.311-116.622zM201.956 661.333h-28.444c0 65.422 68.267 116.622 150.756 116.622v-28.444c-68.267 0-122.311-39.822-122.311-88.178zM324.267 516.267c-82.489 0-150.756 65.422-150.756 145.067h28.444c0-65.422 54.044-116.622 122.311-116.622v-28.444zM978.489 712.533h-28.444c0 31.289 51.2 45.511 102.4 45.511v-28.444c-45.511 0-71.111-14.222-73.956-17.067zM978.489 578.844h-28.444c0 34.133 51.2 54.044 102.4 54.044v-28.444c-45.511 0-73.956-17.067-73.956-25.6zM1137.778 647.111v28.444c45.511 0 82.489 19.911 82.489 36.978h28.444c0-36.978-48.356-65.422-110.933-65.422zM1137.778 536.178v28.444c48.356 0 79.644 11.378 82.489 17.067l28.444-2.844c0-31.289-59.733-42.667-110.933-42.667zM1106.489 704h-28.444c0 14.222-11.378 25.6-25.6 25.6v28.444c31.289 0 54.044-25.6 54.044-54.044zM1137.778 647.111c-31.289 0-59.733 25.6-59.733 56.889h28.444c0-17.067 14.222-28.444 31.289-28.444v-28.444zM1106.489 587.378h-28.444c0 8.533-11.378 17.067-25.6 17.067v28.444c31.289 0 54.044-19.911 54.044-45.511zM1137.778 536.178c-31.289 0-59.733 22.756-59.733 51.2h28.444c0-11.378 14.222-22.756 31.289-22.756v-28.444zM329.713 934.921l511.387-156.256-8.311-27.201-511.387 156.256 8.311 27.201zM830.775 526.181l10.704-26.354-284.621-115.599-10.704 26.354 284.621 115.599zM822.044 763.733h28.444v-250.311h-28.444v250.311zM301.511-38.4c-31.289 0-102.4 2.844-102.4 36.978h28.444c0 2.844 0 5.689-2.844 5.689 5.689-2.844 31.289-11.378 76.8-11.378v-31.289zM301.511-38.4v28.444c36.978 0 56.889 8.533 62.578 11.378 0 0 0-2.844 0-2.844h28.444c-2.844-36.978-76.8-36.978-91.022-36.978zM389.689-4.267h-28.444c0 227.556 73.956 403.911 170.667 403.911v-28.444c-68.267 0-142.222-150.756-142.222-375.467zM324.267 351.289v28.444c136.533 0 227.556 17.067 236.089 31.289 0 0 0-2.844 0-2.844h28.444c0-54.044-221.867-56.889-264.533-56.889z" />
<glyph unicode="&#xe90d;" glyph-name="gym" horiz-adv-x="1638" d="M477.867 540.16h665.6v-34.133h-665.6v34.133zM477.867 386.56h665.6v-34.133h-665.6v34.133zM1126.4 857.6h34.133v-812.373h-34.133v812.373zM460.8 857.6h34.133v-812.373h-34.133v812.373zM1273.173 857.6h34.133v-812.373h-34.133v812.373zM1423.36 779.093h34.133v-658.773h-34.133v658.773zM314.027 857.6h34.133v-812.373h-34.133v812.373zM187.733 779.093h34.133v-658.773h-34.133v658.773zM119.467 540.16h85.333v-34.133h-85.333v34.133zM119.467 386.56h85.333v-34.133h-85.333v34.133zM1440.427 540.16h95.573v-34.133h-95.573v34.133zM1440.427 386.56h95.573v-34.133h-95.573v34.133zM221.867 779.093h-34.133c0 34.133 34.133 61.44 75.093 61.44v-34.133c-23.893 0-40.96-13.653-40.96-27.307zM314.027 796.16c-3.413 3.413-20.48 10.24-51.2 10.24v34.133c40.96 0 85.333-10.24 85.333-40.96h-34.133c0 0 0-3.413 0-3.413zM494.933 857.6h-34.133c0 10.24-20.48 23.893-47.787 23.893v34.133c44.373 0 81.92-27.307 81.92-58.027zM348.16 857.6h-34.133c0 34.133 44.373 58.027 98.987 58.027v-34.133c-44.373 0-64.853-17.067-64.853-23.893zM81.92 451.413h-34.133c0 47.787 30.72 88.747 71.68 88.747v-34.133c-20.48 0-37.547-27.307-37.547-54.613zM119.467 352.427c-40.96 0-71.68 44.373-71.68 98.987h34.133c0-37.547 20.48-64.853 37.547-64.853v-34.133zM262.827 55.467c-40.96 0-75.093 27.307-75.093 64.853h34.133c0-17.067 17.067-30.72 40.96-30.72v-34.133zM262.827 55.467v34.133c34.133 0 51.2 6.827 51.2 10.24 0 0 0-3.413 0-3.413h34.133c0-30.72-47.787-40.96-85.333-40.96zM413.013-16.213c-58.027 0-98.987 27.307-98.987 61.44h34.133c0-10.24 27.307-27.307 64.853-27.307v-34.133zM413.013-16.213v34.133c27.307 0 47.787 17.067 47.787 37.547h34.133c0-40.96-37.547-71.68-81.92-71.68zM1160.533 857.6h-34.133c0 34.133 40.96 58.027 98.987 58.027v-34.133c-40.96 0-64.853-17.067-64.853-23.893zM1307.307 857.6h-34.133c0 10.24-20.48 23.893-51.2 23.893v34.133c51.2 0 85.333-27.307 85.333-58.027zM1457.493 779.093h-34.133c0 13.653-20.48 27.307-51.2 27.307v34.133c47.787 0 85.333-27.307 85.333-61.44zM1307.307 792.747l-34.133 3.413c0 30.72 47.787 44.373 98.987 44.373v-34.133c-37.547 0-61.44-10.24-64.853-13.653zM1590.613 451.413h-34.133c0 34.133-13.653 54.613-20.48 54.613v34.133c30.72 0 54.613-37.547 54.613-88.747zM1536 352.427v34.133c3.413 0 20.48 20.48 20.48 64.853h34.133c0-51.2-20.48-98.987-54.613-98.987zM1225.387-16.213v34.133c27.307 0 51.2 13.653 51.2 27.307h34.133c-3.413-34.133-37.547-61.44-85.333-61.44zM1225.387-16.213c-54.613 0-98.987 27.307-98.987 61.44h34.133c0-10.24 23.893-27.307 64.853-27.307v-34.133zM1372.16 55.467c-54.613 0-98.987 27.307-98.987 64.853h34.133c0-13.653 27.307-30.72 64.853-30.72v-34.133zM1372.16 55.467v34.133c30.72 0 51.2 17.067 51.2 30.72h34.133c0-37.547-37.547-64.853-85.333-64.853z" />
<glyph unicode="&#xe90e;" glyph-name="tv" d="M56.076 684.495h897.219v-24.381h-897.219v24.381zM943.543 672.305h24.381v-682.667h-24.381v682.667zM56.076 1.829h897.219v-24.381h-897.219v24.381zM43.886 672.305h24.381v-682.667h-24.381v682.667zM151.162 550.4h24.381v-455.924h-24.381v455.924zM163.352 106.667h553.448v-24.381h-553.448v24.381zM702.171 550.4h24.381v-455.924h-24.381v455.924zM163.352 562.59h553.448v-24.381h-553.448v24.381zM225.603 922.812l166.444-243.589-20.131-13.756-166.444 243.589 20.131 13.756zM663.069 921.535l20.046-13.88-169.337-244.561-20.046 13.88 169.337 244.561zM863.086 508.952c-21.943 0-41.448 19.505-41.448 41.448s19.505 41.448 41.448 41.448 41.448-19.505 41.448-41.448c-2.438-24.381-19.505-41.448-41.448-41.448zM863.086 557.714c-4.876 0-7.314-2.438-7.314-7.314s2.438-7.314 7.314-7.314c4.876 0 7.314 2.438 7.314 7.314 0 2.438-4.876 7.314-7.314 7.314zM863.086 387.048c-21.943 0-41.448 19.505-41.448 41.448s19.505 41.448 41.448 41.448 41.448-19.505 41.448-41.448c-2.438-21.943-19.505-41.448-41.448-41.448zM863.086 435.81c-4.876 0-7.314-2.438-7.314-7.314s2.438-7.314 7.314-7.314c4.876 0 7.314 2.438 7.314 7.314s-4.876 7.314-7.314 7.314z" />
<glyph unicode="&#xe90f;" glyph-name="pool" d="M202.362 796.648h-24.381c0 12.19-29.257 29.257-73.143 29.257v24.381c56.076 0 97.524-21.943 97.524-53.638zM370.59 838.095h-24.381c0 39.010-24.381 68.267-53.638 68.267v24.381c41.448 0 78.019-41.448 78.019-92.648zM516.876 411.429c-268.19 0-477.867 75.581-477.867 173.105s209.676 173.105 477.867 173.105 477.867-75.581 477.867-173.105-212.114-173.105-477.867-173.105zM516.876 733.257c-270.629 0-453.486-78.019-453.486-148.724s182.857-148.724 453.486-148.724 453.486 78.019 453.486 148.724-182.857 148.724-453.486 148.724zM177.981 796.648h24.381v-258.438h-24.381v258.438zM346.21 838.095h24.381v-253.562h-24.381v253.562zM352.334 661.346l8.124-22.989-165.519-58.491-8.124 22.989 165.519 58.491zM351.789 849.986l7.882-23.072-166.116-56.753-7.882 23.072 166.116 56.753zM39.010 557.714h24.381v-436.419h-24.381v436.419zM187.733 467.505h24.381v-426.667h-24.381v426.667zM334.019 435.81h24.381v-426.667h-24.381v426.667zM504.686 423.619h24.381v-429.105h-24.381v429.105zM672.914 435.81h24.381v-438.857h-24.381v438.857zM811.886 462.629h24.381v-424.229h-24.381v424.229zM960.61 538.21h24.381v-419.352h-24.381v419.352zM516.876-17.676c-231.619 0-477.867 48.762-477.867 138.971h24.381c0-53.638 185.295-114.59 453.486-114.59v-24.381zM516.876-17.676v24.381c263.314 0 446.171 60.952 446.171 114.59h24.381c-2.438-90.21-243.81-138.971-470.552-138.971z" />
<glyph unicode="&#xe910;" glyph-name="phone2" d="M816.762-32.305c-212.114 68.267-346.21 143.848-529.067 307.2l17.067 17.067c177.981-160.914 309.638-236.495 519.314-302.324l-7.314-21.943zM285.257 274.895c-129.219 153.6-192.61 275.505-256 477.867l24.381 7.314c60.952-197.486 124.343-316.952 251.124-468.114l-19.505-17.067zM172.789 921.738l18.256-16.16-140.589-158.831-18.256 16.16 140.589 158.831zM136.181 843.77l181.989-173.024-16.798-17.669-181.989 173.024 16.798 17.669zM298.289 664.457l24.001-4.286-15.43-86.402-24.001 4.286 15.43 86.402zM306.792 584.192l328.303-340.459-17.549-16.923-328.303 340.459 17.549 16.923zM624.152 245.638h82.895v-24.381h-82.895v24.381zM750.759 315.055l19.517-14.614-55.533-74.164-19.517 14.614 55.533 74.164zM729.064 260.089l188.744-197.318-17.618-16.852-188.744 197.318 17.618 16.852zM963.508 126.163l16.313-18.12-152.207-137.032-16.313 18.12 152.207 137.032zM864.328 315.26l115.295-112.254-17.008-17.469-115.295 112.254 17.008 17.469zM246.382 922.513l125.432-119.304-16.803-17.666-125.432 119.304 16.803 17.666zM374.697 719.801l13.922-20.014-70.050-48.725-13.922 20.014 70.050 48.725zM182.857 925.867h56.076v-24.381h-56.076v24.381zM392.533 708.876h-24.381c0 43.886-7.314 70.705-9.752 75.581 0 0 2.438-2.438 4.876-2.438v24.381c26.819 0 29.257-60.952 29.257-97.524zM760.686 318.781h95.086v-24.381h-95.086v24.381zM960.61 194.438h24.381v-80.457h-24.381v80.457z" />
<glyph unicode="&#xe911;" glyph-name="parking" d="M512-17.676c-256 0-465.676 209.676-465.676 465.676s209.676 465.676 465.676 465.676 465.676-209.676 465.676-465.676-209.676-465.676-465.676-465.676zM512 889.295c-243.81 0-441.295-197.486-441.295-441.295s197.486-441.295 441.295-441.295c243.81 0 441.295 197.486 441.295 441.295s-197.486 441.295-441.295 441.295zM431.543 655.238h24.381v-407.162h-24.381v407.162zM451.048 647.924c2.438 0 4.876 4.876 4.876 7.314h-24.381c0 9.752 0 24.381 131.657 24.381v-24.381c-65.829 0-104.838-4.876-112.152-7.314zM670.476 535.771h-24.381c0 65.829-36.571 119.467-82.895 119.467v24.381c58.514 0 107.276-65.829 107.276-143.848zM563.2 416.305v24.381c46.324 0 82.895 43.886 82.895 95.086h24.381c0-65.829-48.762-119.467-107.276-119.467zM443.733 440.686h119.467v-24.381h-119.467v24.381z" />
<glyph unicode="&#xe912;" glyph-name="kitchen" horiz-adv-x="756" d="M134.095 923.429h24.381v-572.952h-24.381v572.952zM670.476 923.429h24.381v-572.952h-24.381v572.952zM524.19 855.162h24.381v-316.952h-24.381v316.952zM231.619 923.429h24.381v-287.695h-24.381v287.695zM31.695 923.429h24.381v-287.695h-24.381v287.695zM80.457 326.095h24.381v-316.952h-24.381v316.952zM182.857 326.095h24.381v-316.952h-24.381v316.952zM592.457 326.095h24.381v-316.952h-24.381v316.952zM699.733 326.095h24.381v-316.952h-24.381v316.952zM146.286 606.476c-51.2 0-114.59 4.876-114.59 31.695h24.381c0 2.438-2.438 4.876-2.438 4.876 4.876-4.876 36.571-12.19 92.648-12.19v-24.381zM146.286 606.476v24.381c51.2 0 82.895 7.314 87.771 12.19 0 0-2.438-2.438-2.438-4.876h24.381c0-26.819-58.514-31.695-109.714-31.695zM207.238 326.095h-24.381c0 2.438-12.19 12.19-36.571 12.19v24.381c34.133 0 60.952-14.629 60.952-36.571zM104.838 326.095h-24.381c0 21.943 26.819 36.571 65.829 36.571v-24.381c-24.381 0-39.010-9.752-41.448-12.19zM146.286-27.429c-36.571 0-65.829 14.629-65.829 36.571h24.381c0 0 0 0 0 0 0-4.876 17.067-12.19 41.448-12.19v-24.381zM146.286-27.429v24.381c24.381 0 36.571 9.752 36.571 12.19h24.381c0-21.943-26.819-36.571-60.952-36.571zM548.571 855.162h-24.381c0 41.448 68.267 73.143 158.476 73.143v-24.381c-75.581 0-134.095-26.819-134.095-48.762zM682.667 457.752c-90.21 0-158.476 34.133-158.476 80.457h24.381c0-26.819 56.076-56.076 134.095-56.076v-24.381zM616.838 323.657l-24.381 2.438c0 24.381 43.886 36.571 90.21 36.571v-24.381c-39.010 0-63.39-9.752-65.829-14.629zM724.114 326.095h-24.381c0 7.314-7.314 12.19-17.067 12.19v24.381c21.943 0 41.448-17.067 41.448-36.571zM660.724-27.429c-34.133 0-68.267 12.19-68.267 36.571h24.381c0 0 0 0 0 0 0-2.438 17.067-12.19 43.886-12.19v-24.381zM660.724-27.429v24.381c24.381 0 36.571 9.752 36.571 12.19h24.381c2.438-21.943-24.381-36.571-60.952-36.571z" />
<glyph unicode="&#xe913;" glyph-name="aircon" horiz-adv-x="878" d="M426.667 911.238h24.381v-926.476h-24.381v926.476zM823.326 695.982l12.49-20.938-787.282-469.638-12.49 20.938 787.282 469.638zM48.554 694.903l787.191-469.821-12.495-20.936-787.191 469.821 12.495 20.936zM322.719 862.991l123.204-118.101-16.872-17.601-123.204 118.101 16.872 17.601zM552.402 864.302l16.733-17.732-124.126-117.129-16.733 17.732 124.126 117.129zM708.957 740.274l23.396-6.861-41.165-140.376-23.396 6.861 41.165 140.376zM680.049 606.985l150.457-49.793-7.66-23.147-150.457 49.793 7.66 23.147zM825.083 366.766l6.573-23.479-131.482-36.809-6.573 23.479 131.482 36.809zM687.543 318.781h24.381v-165.79h-24.381v165.79zM430.8 180.849l16.335-18.098-126.686-114.347-16.335 18.098 126.686 114.347zM446.646 179.338l121.209-113.119-16.635-17.825-121.209 113.119 16.635 17.825zM182.704 310.235l24.001-4.286-27.86-156.004-24.001 4.286 27.86 156.004zM46.378 366.228l151.202-47.464-7.302-23.262-151.202 47.464 7.302 23.262zM179.023 759.609l27.705-160.984-24.027-4.135-27.705 160.984 24.027 4.135zM190.489 606.698l7.639-23.155-152.82-50.414-7.639 23.155 152.82 50.414z" />
<glyph unicode="&#xe914;" glyph-name="elevator" d="M41.448 928.305h933.79v-24.381h-933.79v24.381zM41.448 4.267h933.79v-24.381h-933.79v24.381zM109.714 916.114h24.381v-921.6h-24.381v921.6zM499.81 916.114h24.381v-921.6h-24.381v921.6zM889.905 916.114h24.381v-921.6h-24.381v921.6zM299.886 589.41h24.381v-238.933h-24.381v238.933zM304.175 597.737l17.24-17.24-70.683-70.683-17.24 17.24 70.683 70.683zM320.451 598.748l74.131-74.142-17.242-17.24-74.131 74.142 17.242 17.24zM694.857 589.41h24.381v-238.933h-24.381v238.933zM784.312 443.114l17.24-17.24-84.475-84.475-17.24 17.24 84.475 84.475zM631.886 441.996l82.763-82.751-17.24-17.242-82.763 82.751 17.24 17.242z" />
<glyph unicode="&#xe915;" glyph-name="washer" d="M512 92.16c-156.16 0-281.6 125.44-281.6 281.6s125.44 281.6 281.6 281.6 281.6-125.44 281.6-281.6-125.44-281.6-281.6-281.6zM512 629.76c-140.8 0-256-115.2-256-256s115.2-256 256-256c140.8 0 256 115.2 256 256s-115.2 256-256 256zM256 373.76h-25.6c0 40.96 79.36 61.44 161.28 61.44v-25.6c-84.48 0-135.68-23.040-135.68-35.84zM524.8 373.76h-25.6c0 12.8-43.52 35.84-110.080 35.84v25.6c69.12 0 135.68-20.48 135.68-61.44zM640 304.64c-79.36 0-140.8 30.72-140.8 71.68h25.6c0-20.48 48.64-46.080 115.2-46.080v-25.6zM640 304.64v25.6c79.36 0 128 25.6 128 46.080h25.6c0-48.64-79.36-71.68-153.6-71.68zM38.4 908.8h25.6v-919.040h-25.6v919.040zM51.2 2.56h916.48v-25.6h-916.48v25.6zM952.32 908.8h25.6v-919.040h-25.6v919.040zM51.2 921.6h916.48v-25.6h-916.48v25.6zM225.28 785.92c0-26.863-21.777-48.64-48.64-48.64s-48.64 21.777-48.64 48.64c0 26.863 21.777 48.64 48.64 48.64s48.64-21.777 48.64-48.64zM386.56 785.92c0-26.863-21.777-48.64-48.64-48.64s-48.64 21.777-48.64 48.64c0 26.863 21.777 48.64 48.64 48.64s48.64-21.777 48.64-48.64z" />
<glyph unicode="&#xe916;" glyph-name="coffee" horiz-adv-x="1075" d="M445.44-23.040c-222.72 0-404.48 156.16-404.48 348.16h25.6c0-179.2 168.96-322.56 378.88-322.56v-25.6zM445.44-23.040v25.6c197.12 0 358.4 145.92 358.4 322.56h25.6c0-192-174.080-348.16-384-348.16zM913.92 235.52v25.6c53.76 0 99.84 48.64 99.84 110.080h25.6c0-74.24-56.32-135.68-125.44-135.68zM1039.36 371.2h-25.6c0 66.56-43.52 117.76-99.84 117.76v25.6c69.12 0 125.44-64 125.44-143.36zM286.72 721.92c-20.48 0-33.28 43.52-33.28 128h25.6c0-64 7.68-99.84 12.8-104.96 0 0-2.56 2.56-5.12 2.56v-25.6zM337.92 650.24h-25.6c0 48.64-17.92 74.24-25.6 74.24v25.6c30.72-2.56 51.2-43.52 51.2-99.84zM307.2 581.12v25.6c-2.56 0-2.56 0-2.56 0 2.56 2.56 10.24 17.92 10.24 43.52h25.6c-2.56-33.28-10.24-69.12-33.28-69.12zM396.8 849.92h-25.6c0 43.52 20.48 76.8 48.64 76.8v-25.6c-10.24 0-23.040-17.92-23.040-51.2zM445.44 739.84c-40.96 0-74.24 48.64-74.24 112.64h25.6c0-46.080 23.040-87.040 48.64-87.040v-25.6zM478.72 678.4h-25.6c0 35.84-7.68 58.88-12.8 61.44 0 0 0 0 2.56 0v25.6c28.16 0 35.84-46.080 35.84-87.040zM445.44 581.12v25.6c-2.56 0-2.56 0-2.56 0 5.12 2.56 12.8 28.16 12.8 71.68h25.6c-2.56-15.36-2.56-97.28-35.84-97.28zM550.4 793.6h-25.6c0 40.96 20.48 71.68 46.080 71.68v-25.6c-7.68-2.56-20.48-17.92-20.48-46.080zM568.32 721.92c-25.6 0-46.080 30.72-46.080 71.68h25.6c0-28.16 12.8-46.080 20.48-46.080v-25.6zM606.72 678.4h-25.6c0 28.16-10.24 43.52-12.8 46.080v25.6c25.6-2.56 38.4-35.84 38.4-71.68zM552.96 581.12v25.6c12.8 0 28.16 28.16 28.16 71.68h25.6c0-53.76-23.040-97.28-53.76-97.28zM53.76 514.56h860.16v-25.6h-860.16v25.6zM803.84 501.76h25.6v-176.64h-25.6v176.64zM816.64 261.12h99.84v-25.6h-99.84v25.6zM40.96 501.76h25.6v-176.64h-25.6v176.64z" />
<glyph unicode="&#xe917;" glyph-name="dryer" d="M811.52 378.88h-25.6c0 148.48-122.88 268.8-273.92 268.8v25.6c163.84 0 299.52-130.56 299.52-294.4zM235.52 378.88h-25.6c0 161.28 135.68 294.4 302.080 294.4v-25.6c-153.6 0-276.48-120.32-276.48-268.8zM512 76.8c-166.4 0-302.080 135.68-302.080 302.080h25.6c0-153.6 125.44-276.48 276.48-276.48v-25.6zM512 76.8v25.6c151.040 0 273.92 125.44 273.92 276.48h25.6c0-166.4-135.68-302.080-299.52-302.080zM358.4 419.84c0 0 0 2.56 0 2.56h-25.6c0 35.84 99.84 38.4 120.32 38.4v-25.6c-58.88 0-92.16-10.24-94.72-15.36zM586.24 381.44v25.6c43.52 0 69.12 10.24 71.68 15.36l25.6-2.56c-2.56-25.6-51.2-38.4-97.28-38.4zM358.4 312.32h-25.6c0 35.84 58.88 53.76 120.32 53.76v-25.6c-64-2.56-94.72-20.48-94.72-28.16zM586.24 273.92v25.6c40.96 0 71.68 15.36 71.68 30.72h25.6c-2.56-30.72-43.52-56.32-97.28-56.32zM499.2 422.4c-2.56 2.56-17.92 12.8-46.080 12.8v25.6c35.84 0 71.68-12.8 71.68-38.4h-25.6c0 0 0 0 0 0zM586.24 381.44c-40.96 0-87.040 12.8-87.040 40.96h25.6c0 0 0 0 0 0 2.56-5.12 23.040-15.36 61.44-15.36v-25.6zM524.8 312.32h-25.6c0 15.36-23.040 28.16-46.080 28.16v25.6c40.96-2.56 71.68-25.6 71.68-53.76zM586.24 273.92c-40.96 0-87.040 10.24-87.040 35.84h25.6c0 0 0 2.56 0 2.56 2.56-5.12 25.6-12.8 61.44-12.8v-25.6zM222.72 785.92c0-28.277-22.923-51.2-51.2-51.2s-51.2 22.923-51.2 51.2c0 28.277 22.923 51.2 51.2 51.2s51.2-22.923 51.2-51.2zM381.44 785.92c0-28.277-22.923-51.2-51.2-51.2s-51.2 22.923-51.2 51.2c0 28.277 22.923 51.2 51.2 51.2s51.2-22.923 51.2-51.2zM56.32 921.6h911.36v-25.6h-911.36v25.6zM954.88 908.8h25.6v-919.040h-25.6v919.040zM56.32 2.56h911.36v-25.6h-911.36v25.6zM43.52 908.8h25.6v-919.040h-25.6v919.040z" />
<glyph unicode="&#xe918;" glyph-name="doorman" horiz-adv-x="1075" d="M69.12 243.2h-25.6c0 304.64 220.16 550.4 494.080 550.4v-25.6c-258.56 0-468.48-235.52-468.48-524.8zM1036.8 243.2h-25.6c0 289.28-212.48 524.8-473.6 524.8v25.6c276.48 0 499.2-245.76 499.2-550.4zM56.32 256h967.68v-25.6h-967.68v25.6zM524.8 908.8h25.6v-128h-25.6v128zM537.6 921.6h125.44v-25.6h-125.44v25.6zM414.72 921.6h122.88v-25.6h-122.88v25.6zM399.36 921.6h15.36v-25.6h-15.36v25.6zM524.8 243.2h25.6v-148.48h-25.6v148.48zM537.6 107.52h468.48v-25.6h-468.48v25.6zM56.32 107.52h481.28v-25.6h-481.28v25.6zM56.32-2.56h947.2v-25.6h-947.2v25.6zM1003.52-28.16v25.6c-2.56 0-2.56 0-2.56 0 2.56 2.56 10.24 20.48 10.24 46.080h25.6c0-33.28-7.68-71.68-33.28-71.68zM1036.8 40.96h-25.6c0 25.6-5.12 40.96-10.24 43.52 0 0 0 0 2.56 0v25.6c23.040-2.56 33.28-35.84 33.28-69.12zM56.32 40.96h-25.6c0 25.6 2.56 66.56 25.6 66.56v-25.6c2.56 0 5.12 2.56 7.68 2.56-2.56-2.56-7.68-15.36-7.68-43.52zM56.32-28.16c-20.48 0-25.6 38.4-25.6 71.68h25.6c0-28.16 5.12-43.52 7.68-48.64 0 0-2.56 2.56-7.68 2.56v-25.6z" />
<glyph unicode="&#xe919;" glyph-name="staff" horiz-adv-x="780" d="M126.781 789.333h-24.381c0 75.581 126.781 134.095 287.695 134.095v-24.381c-141.41 0-263.314-51.2-263.314-109.714zM670.476 789.333h-24.381c0 58.514-117.029 109.714-256 109.714v24.381c156.038 0 280.381-58.514 280.381-134.095zM146.286 679.619c-34.133 0-43.886 68.267-43.886 109.714h24.381c0-53.638 14.629-82.895 19.505-85.333v-24.381zM626.59 679.619v24.381c4.876 2.438 19.505 31.695 19.505 85.333h24.381c0-41.448-9.752-109.714-43.886-109.714zM390.095 435.81c-126.781 0-231.619 114.59-231.619 256h24.381c0-126.781 92.648-231.619 207.238-231.619v-24.381zM390.095 435.81v24.381c109.714 0 197.486 104.838 197.486 231.619h24.381c0-141.41-99.962-256-221.867-256zM58.514 318.781h-24.381c0 68.267 80.457 121.905 180.419 121.905v-24.381c-85.333 0-156.038-43.886-156.038-97.524zM741.181 318.781h-24.381c0 53.638-68.267 97.524-153.6 97.524v24.381c99.962 0 177.981-56.076 177.981-121.905zM146.286 704h482.743v-24.381h-482.743v24.381zM209.676 535.771h24.381v-234.057h-24.381v234.057zM332.533 368.794l10.618-21.948-118.518-57.337-10.618 21.948 118.518 57.337zM326.705 455.314h24.381v-95.086h-24.381v95.086zM429.105 448h24.381v-90.21h-24.381v90.21zM338.895 369.981h102.4v-24.381h-102.4v24.381zM445.804 370.747l115.987-56.973-10.75-21.884-115.987 56.973 10.75 21.884zM543.695 535.771h24.381v-234.057h-24.381v234.057zM34.133 318.781h24.381v-329.143h-24.381v329.143zM46.324 1.829h682.667v-24.381h-682.667v24.381zM716.8 318.781h24.381v-329.143h-24.381v329.143zM572.952 233.448h24.381v-243.81h-24.381v243.81zM375.467 357.79h24.381v-370.59h-24.381v370.59zM180.419 213.943h24.381v-226.743h-24.381v226.743z" />
<glyph unicode="&#xe91a;" glyph-name="spa" d="M53.527 534.109h900.655v-23.273h-900.655v23.273zM53.527 431.709h900.655v-23.273h-900.655v23.273zM53.527-5.818h900.655v-23.273h-900.655v23.273zM83.782 420.073h23.273v-437.527h-23.273v437.527zM218.764 420.073h23.273v-437.527h-23.273v437.527zM358.4 420.073h23.273v-437.527h-23.273v437.527zM500.364 420.073h23.273v-437.527h-23.273v437.527zM640 420.073h23.273v-437.527h-23.273v437.527zM784.291 420.073h23.273v-437.527h-23.273v437.527zM914.618 420.073h23.273v-437.527h-23.273v437.527zM53.527 471.273h-23.273c0 30.255 11.636 62.836 32.582 62.836v-23.273c-2.327-2.327-9.309-16.291-9.309-39.564zM53.527 408.436c-20.945 0-23.273 39.564-23.273 62.836h23.273c0-23.273 4.655-37.236 6.982-41.891 0 0-2.327 2.327-4.655 2.327v-23.273zM986.764 478.255h-23.273c0 18.618-6.982 30.255-9.309 32.582v23.273c18.618 0 32.582-23.273 32.582-55.855zM954.182 408.436v23.273c2.327 2.327 9.309 18.618 9.309 46.545h23.273c0-34.909-9.309-69.818-32.582-69.818zM363.055 806.4h-23.273c0 27.927 11.636 55.855 32.582 55.855v-23.273c-4.655 0-9.309-11.636-9.309-32.582zM388.655 731.927c-27.927 0-48.873 32.582-48.873 72.145h23.273c0-30.255 13.964-48.873 25.6-48.873v-23.273zM421.236 683.055h-23.273c0 30.255-9.309 46.545-11.636 48.873l2.327 23.273c23.273 0 32.582-34.909 32.582-72.145zM388.655 620.218v23.273c2.327 2.327 9.309 13.964 9.309 39.564h23.273c0-30.255-11.636-62.836-32.582-62.836zM479.418 850.618h-23.273c0 39.564 11.636 79.127 37.236 79.127v-23.273c-2.327 0-13.964-20.945-13.964-55.855zM512 764.509c-30.255 0-55.855 37.236-55.855 88.436h23.273c0-37.236 16.291-65.164 32.582-65.164v-23.273zM549.236 699.345h-23.273c0 39.564-9.309 62.836-13.964 65.164l2.327 23.273c23.273 0 34.909-44.218 34.909-88.436zM505.018 620.218v23.273c9.309 0 20.945 20.945 20.945 55.855h23.273c0-44.218-20.945-79.127-44.218-79.127zM621.382 794.764h-23.273c0 27.927 2.327 76.8 25.6 76.8v-23.273c2.327 0 4.655 2.327 4.655 2.327 0-4.655-6.982-23.273-6.982-55.855zM642.327 724.945c-25.6 0-44.218 30.255-44.218 69.818h23.273c0-27.927 11.636-46.545 20.945-46.545v-23.273zM663.273 683.055h-23.273c0 27.927-2.327 44.218-4.655 46.545 0-2.327 2.327-4.655 6.982-4.655v23.273c6.982 0 20.945 0 20.945-65.164zM619.055 620.218v23.273c9.309 0 20.945 16.291 20.945 39.564h23.273c0-34.909-20.945-62.836-44.218-62.836z" />
<glyph unicode="&#xe91b;" glyph-name="business" d="M997.164 695.307h-312.645v54.991c0 32.824-26.706 59.53-59.527 59.53h-225.98c-32.824 0-59.527-26.706-59.527-59.53v-54.991h-312.649c-14.821 0-26.836-12.015-26.836-26.836v-555.463c0-14.821 12.015-26.836 26.836-26.836h970.328c14.821 0 26.836 12.015 26.836 26.836v555.463c0 14.821-12.015 26.836-26.836 26.836zM970.328 641.635v-8.503l-426.868-248.879c-23.811-13.947-53.278-13.755-76.909 0.498l-412.879 247.794v9.090h916.655zM53.672 571.121l385.157-232.329c20.488-12.36 43.532-18.548 66.592-18.548 22.504 0 45.016 5.896 65.166 17.697l399.74 234.138v-432.231h-916.655v431.273zM393.154 750.298c0 3.228 2.63 5.858 5.854 5.858h225.98c3.228 0 5.854-2.63 5.854-5.858v-54.991h-237.692v54.991z" />
<glyph unicode="&#xe91c;" glyph-name="dice" d="M1022.382 769.953l-212.263-643.379c-2.654-8.050-8.297-14.593-15.892-18.421-4.512-2.273-9.387-3.422-14.292-3.422-3.347 0-6.706 0.535-9.972 1.614l-53.095 17.515c-10.7 3.529-16.511 15.063-12.982 25.76 3.529 10.7 15.076 16.511 25.76 12.982l44.549-14.695 206.631 626.295-404.62 133.494-57.413-174.031c-3.531-10.7-15.076-16.509-25.76-12.98-10.7 3.529-16.511 15.063-12.982 25.762l60.232 182.575c5.503 16.651 23.514 25.728 40.161 20.235l421.711-139.133c8.053-2.652 14.598-8.297 18.426-15.894 3.826-7.597 4.465-16.218 1.802-24.276zM604.361 788.31c2.124-0.7 4.277-1.033 6.396-1.033 8.56 0 16.538 5.435 19.366 14.013l6.083 18.435c3.531 10.697-2.282 22.231-12.98 25.762-10.693 3.529-22.236-2.28-25.762-12.98l-6.083-18.435c-3.529-10.7 2.282-22.233 12.98-25.762zM720.283 254.308l-6.083-18.435c-3.531-10.697 2.282-22.233 12.982-25.762 2.121-0.7 4.274-1.033 6.394-1.033 8.562 0 16.538 5.435 19.366 14.013l6.083 18.435c3.531 10.697-2.282 22.233-12.982 25.762-10.684 3.524-22.231-2.278-25.76-12.98zM576.745 612.797c5.879 17.816 18.349 32.278 35.111 40.727 16.767 8.449 35.809 9.863 53.628 3.984 21.991-7.255 33.939-20.123 40.857-35.32 14.605 8.098 31.861 11.33 53.861 4.070 36.784-12.139 56.844-51.946 44.712-88.734-18.279-55.396-86.148-89.587-151.781-122.651-2.942-1.482-6.076-2.185-9.161-2.185-7.459 0-14.646 4.107-18.231 11.223-33.074 65.631-67.272 133.501-48.995 188.885zM653.007 460.526c52.032 26.533 101.535 54.537 113.164 89.777 5.088 15.427-3.325 32.124-18.752 37.214-12.436 4.104-20.493 2.935-38.216-14.897-5.446-5.48-13.521-7.416-20.858-4.993-7.336 2.421-12.678 8.778-13.793 16.422-3.635 24.885-9.417 30.617-21.848 34.717-3.030 0.999-6.147 1.496-9.247 1.496-4.546 0-9.061-1.065-13.243-3.171-7.035-3.542-12.264-9.607-14.727-17.075-11.629-35.236 11.493-87.202 37.52-139.491zM497.184 470.911v-198.936c0-11.266 9.131-20.398 20.398-20.398s20.398 9.131 20.398 20.398v198.936c0 71.464-13.070 131.502-38.844 178.443-23.951 43.624-58.94 75.034-101.231 90.908l-136.1 61.383c-7.203 3.248-15.627 2.044-21.631-3.080-6.004-5.127-8.513-13.261-6.434-20.878l11.343-41.6c-70.089-26.118-134.758-81.5-183.76-157.846-2.11-3.286-3.232-7.112-3.232-11.017v-126.212c0-11.266 9.131-20.398 20.398-20.398h78.975c0.682 0 1.362 0.034 2.038 0.102 21.601 2.169 56.753 13.564 61.853 64.003 6.851 2.674 14.188 4.061 21.635 4.061 32.804 0 59.489-26.685 59.489-59.484 0-37.711-23.183-46.731-71.412-62.018-60.092-19.047-142.389-45.133-142.389-181.53v-32.464c-38.309-0.091-69.45-31.281-69.45-69.615 0-6.258 0.848-12.458 2.5-18.437-13.7-12.977-21.726-31.097-21.726-50.471-0.002-18.539 7.255-36.006 20.438-49.188 13.177-13.177 30.644-20.436 49.177-20.436h260.866c11.266 0 20.398 9.131 20.398 20.398s-9.131 20.398-20.398 20.398h-260.866c-7.638 0-14.859 3.014-20.334 8.488-5.473 5.473-8.488 12.694-8.485 20.336 0 5.992 1.872 11.704 5.204 16.454h262.795c11.266 0 20.398 9.131 20.398 20.398s-9.131 20.398-20.398 20.398h-246.268c-1.639 3.658-2.502 7.626-2.502 11.656 0 15.894 12.928 28.824 28.82 28.824l241.638-0.002c11.264 0 20.398 9.134 20.398 20.398s-9.131 20.398-20.398 20.398l-201.008 0.002v32.46c0 106.533 55.337 124.072 113.921 142.643 46.817 14.84 99.881 31.659 99.881 100.907 0 55.294-44.988 100.28-100.284 100.28-18.372 0-36.351-5.022-51.996-14.525-6.092-3.699-9.809-10.308-9.809-17.433 0-27.65-9.079-34.409-24.804-36.206h-57.497v24.708h8.703c11.266 0 20.398 9.131 20.398 20.398s-9.131 20.398-20.398 20.398h-8.703v34.25c47.123 71.288 111.254 122.932 176.685 142.099 10.668 3.125 16.869 14.217 13.943 24.942l-5.034 18.462 95.729-43.173c0.784-0.41 1.593-0.771 2.427-1.077 72.799-26.728 114.549-111.108 114.549-231.505zM295.757 628.966c-11.266 0-20.398-9.131-20.398-20.398s9.131-20.398 20.398-20.398h4.56c11.266 0 20.398 9.131 20.398 20.398s-9.131 20.398-20.398 20.398h-4.56zM668.82 176.171v-187.845c0-23.813-19.378-43.186-43.195-43.186h-187.842c-23.815 0-43.191 19.373-43.191 43.186v187.845c0 23.815 19.376 43.191 43.191 43.191h187.842c23.818 0 43.195-19.373 43.195-43.191zM628.024 176.171c0 1.276-1.122 2.396-2.4 2.396h-187.842c-1.276 0-2.396-1.12-2.396-2.396v-187.845c0-1.274 1.12-2.391 2.396-2.391h187.842c1.276 0 2.4 1.117 2.4 2.391v187.845zM569.58 139.499h-4.49c-11.266 0-20.398-9.131-20.398-20.398s9.131-20.398 20.398-20.398h4.49c11.266 0 20.398 9.131 20.398 20.398s-9.131 20.398-20.398 20.398zM569.578 65.804h-4.49c-11.266 0-20.398-9.131-20.398-20.398s9.131-20.398 20.398-20.398h4.49c11.266 0 20.398 9.131 20.398 20.398s-9.134 20.398-20.398 20.398zM498.324 139.499h-4.49c-11.266 0-20.398-9.131-20.398-20.398s9.131-20.398 20.398-20.398h4.49c11.266 0 20.398 9.131 20.398 20.398s-9.131 20.398-20.398 20.398zM498.322 65.804h-4.49c-11.266 0-20.398-9.131-20.398-20.398s9.131-20.398 20.398-20.398h4.49c11.266 0 20.398 9.131 20.398 20.398s-9.131 20.398-20.398 20.398z" />
<glyph unicode="&#xe91d;" glyph-name="poker" d="M384.186 476.23c-14.77 12.838-33.944 20.148-54.060 20.148-45.018 0-81.644-36.006-81.644-80.262 0-85.944 122.742-154.764 127.966-157.652 2.408-1.332 5.074-1.996 7.74-1.996s5.332 0.666 7.74 1.996c5.224 2.886 127.964 71.708 127.964 157.652 0 44.256-36.626 80.262-81.644 80.262-20.12 0-39.294-7.31-54.062-20.148zM487.89 416.116c0-51.52-68.87-103.982-103.714-125.142-34.856 21.122-103.696 73.498-103.696 125.142 0 26.612 22.27 48.262 49.644 48.262 16.374 0 31.692-7.872 40.98-21.056 2.998-4.256 7.876-6.788 13.082-6.788s10.084 2.532 13.082 6.788c9.288 13.186 24.606 21.056 40.978 21.056 27.372 0 49.644-21.65 49.644-48.262zM839.772 960h-399.722c-44.086 0-79.956-35.868-79.956-79.956v-47.956h-175.864c-44.088 0-79.956-35.868-79.956-79.956v-736.178c0-44.088 35.868-79.956 79.956-79.956h399.72c44.088 0 79.956 35.868 79.956 79.956v47.956h175.866c44.086 0 79.956 35.868 79.956 79.956v736.178c0 44.088-35.87 79.956-79.956 79.956zM631.906 720.418c-0.002-0.166-0.002-0.334 0-0.5v-95.69c0-0.002 0-0.006 0-0.010v-95.922c0-0.004 0-0.006 0-0.010v-95.922c0-0.002 0-0.006 0-0.010v-95.922c0-0.002 0-0.006 0-0.010v-95.922c0-0.002 0-0.006 0-0.010v-224.53c0-26.442-21.512-47.956-47.956-47.956h-399.72c-26.444 0-47.956 21.512-47.956 47.956v736.174c0 26.442 21.512 47.956 47.956 47.956h191.712c0.052 0 0.102-0.008 0.154-0.008s0.102 0.006 0.154 0.008h79.626c0.056 0 0.108-0.008 0.164-0.008s0.108 0.008 0.164 0.008h127.746c26.444 0 47.956-21.514 47.956-47.956v-31.716zM472.040 832.090v15.966h25.338l15.966-15.966h-41.304zM542.634 848.056h50.678l22.696-22.698c-9.822 4.318-20.66 6.732-32.058 6.732h-25.35l-15.966 15.966zM638.566 848.056h50.678l118.538-118.538v-50.678l-169.216 169.216zM734.5 848.056h73.284v-73.284l-73.284 73.284zM657.176 784.192l150.608-150.608v-50.678l-143.876 143.876v25.35c-0.002 11.4-2.416 22.24-6.732 32.060zM663.906 247.118v50.678l121.25-121.25h-50.678l-70.572 70.572zM689.222 176.546h-25.316v25.318l25.316-25.318zM663.906 343.050v50.678l143.876-143.878v-50.678l-143.876 143.878zM663.906 438.984v50.678l143.876-143.876v-50.678l-143.876 143.876zM663.906 534.916v50.678l143.876-143.876v-50.68l-143.876 143.878zM663.906 630.85v50.678l143.876-143.876v-50.678l-143.876 143.876zM887.728 143.866c0-26.442-21.512-47.956-47.956-47.956h-175.866v48.636h159.876c0.526 0 1.054 0.028 1.578 0.080 0.238 0.022 0.468 0.068 0.702 0.1 0.282 0.042 0.566 0.074 0.846 0.13 0.268 0.052 0.53 0.126 0.794 0.194 0.242 0.060 0.484 0.114 0.724 0.186 0.26 0.080 0.514 0.176 0.768 0.268 0.236 0.084 0.476 0.164 0.708 0.258 0.238 0.1 0.468 0.214 0.7 0.326 0.24 0.114 0.484 0.22 0.72 0.346 0.224 0.12 0.438 0.258 0.656 0.388 0.23 0.138 0.462 0.266 0.686 0.416 0.244 0.164 0.476 0.346 0.71 0.522 0.182 0.136 0.37 0.264 0.548 0.41 0.816 0.67 1.566 1.418 2.236 2.236 0.146 0.178 0.272 0.366 0.41 0.548 0.176 0.234 0.358 0.464 0.522 0.708 0.15 0.224 0.28 0.458 0.418 0.686 0.13 0.218 0.266 0.43 0.386 0.654 0.128 0.238 0.236 0.484 0.35 0.728 0.108 0.23 0.222 0.456 0.32 0.69 0.1 0.24 0.18 0.484 0.266 0.726 0.090 0.25 0.186 0.496 0.262 0.752 0.074 0.244 0.128 0.492 0.19 0.74 0.066 0.258 0.138 0.514 0.19 0.778 0.058 0.29 0.092 0.582 0.134 0.874 0.032 0.224 0.074 0.446 0.098 0.674 0.052 0.528 0.080 1.056 0.080 1.586v95.922c0 0.004 0 0.006 0 0.010v95.922c0 0.002 0 0.006 0 0.010v95.926c0 0.002 0 0.006 0 0.010v95.922c0 0.004 0 0.006 0 0.010v95.922c0 0.002 0 0.006 0 0.010v95.926c0 0.004 0 0.006 0 0.010v127.906c0 8.836-7.164 16-16 16h-127.908c0 0-0.004 0-0.004 0h-191.862c0 0-0.004 0-0.004 0h-47.966c-8.836 0-16-7.164-16-16v-31.966h-47.944v47.954c0 26.442 21.512 47.956 47.956 47.956h399.722c26.442 0 47.956-21.512 47.956-47.956v-736.178zM199.21 618.606l8.098 21.596h49.772l8.098-21.596c2.41-6.422 8.504-10.386 14.984-10.386 1.866 0 3.766 0.328 5.616 1.022 8.274 3.102 12.466 12.326 9.364 20.6l-47.966 127.912c-0.060 0.158-0.136 0.304-0.2 0.458-0.108 0.264-0.218 0.528-0.342 0.788-0.112 0.238-0.234 0.468-0.358 0.698-0.122 0.226-0.244 0.45-0.374 0.668-0.142 0.238-0.294 0.468-0.446 0.698-0.136 0.202-0.272 0.4-0.416 0.594-0.164 0.222-0.334 0.438-0.51 0.648-0.158 0.194-0.32 0.382-0.488 0.568-0.174 0.194-0.354 0.38-0.538 0.562-0.19 0.19-0.382 0.376-0.582 0.556-0.178 0.162-0.362 0.318-0.548 0.47-0.218 0.18-0.44 0.356-0.668 0.526-0.188 0.138-0.38 0.272-0.574 0.402-0.236 0.16-0.472 0.314-0.718 0.46-0.212 0.126-0.43 0.246-0.648 0.364-0.236 0.126-0.47 0.25-0.714 0.366-0.252 0.12-0.51 0.228-0.77 0.334-0.158 0.066-0.308 0.144-0.47 0.204-0.070 0.026-0.14 0.042-0.21 0.066-0.28 0.102-0.564 0.186-0.85 0.27-0.222 0.066-0.444 0.138-0.668 0.194-0.282 0.072-0.568 0.124-0.854 0.18-0.23 0.044-0.46 0.096-0.69 0.13-0.284 0.042-0.57 0.064-0.854 0.092-0.234 0.022-0.466 0.052-0.698 0.064-0.288 0.014-0.578 0.008-0.868 0.006-0.23-0.002-0.46 0.004-0.69-0.006-0.286-0.014-0.572-0.048-0.858-0.078-0.234-0.024-0.468-0.040-0.698-0.074-0.268-0.040-0.536-0.098-0.804-0.152-0.25-0.050-0.5-0.096-0.746-0.158-0.248-0.062-0.494-0.14-0.74-0.216-0.262-0.080-0.524-0.156-0.782-0.25-0.074-0.026-0.15-0.042-0.224-0.072-0.172-0.064-0.332-0.146-0.5-0.216-0.244-0.102-0.49-0.202-0.73-0.316-0.254-0.12-0.5-0.25-0.746-0.382-0.208-0.112-0.416-0.224-0.62-0.346-0.252-0.15-0.498-0.31-0.74-0.474-0.188-0.126-0.374-0.254-0.556-0.388-0.234-0.172-0.458-0.352-0.682-0.536-0.182-0.15-0.362-0.302-0.538-0.462-0.202-0.182-0.398-0.372-0.588-0.562-0.18-0.182-0.358-0.366-0.53-0.556-0.17-0.188-0.332-0.378-0.492-0.574-0.174-0.21-0.342-0.422-0.506-0.644-0.146-0.196-0.282-0.396-0.418-0.598-0.154-0.228-0.304-0.458-0.446-0.696-0.132-0.22-0.254-0.444-0.374-0.67-0.124-0.23-0.246-0.458-0.358-0.696-0.124-0.258-0.234-0.524-0.342-0.79-0.064-0.154-0.14-0.3-0.198-0.458l-47.966-127.91c-3.102-8.274 1.090-17.496 9.364-20.598 1.852-0.694 3.75-1.022 5.616-1.022 6.476-0.002 12.574 3.962 14.982 10.386zM232.194 706.566l12.886-34.364h-25.772l12.886 34.364zM589.568 158.848c-8.268 3.102-17.496-1.088-20.6-9.364l-8.098-21.596h-49.772l-8.098 21.596c-3.104 8.274-12.326 12.464-20.6 9.364-8.274-3.104-12.466-12.326-9.364-20.6l47.966-127.91c0.032-0.084 0.080-0.156 0.112-0.238 0.256-0.65 0.548-1.286 0.886-1.898 0.036-0.064 0.066-0.134 0.102-0.198 0.352-0.614 0.756-1.198 1.188-1.762 0.11-0.144 0.218-0.284 0.332-0.422 0.444-0.542 0.916-1.062 1.43-1.546 0.060-0.056 0.124-0.104 0.182-0.156 0.48-0.436 0.992-0.838 1.528-1.216 0.122-0.086 0.242-0.174 0.368-0.256 0.586-0.39 1.198-0.75 1.844-1.064 0.086-0.042 0.178-0.074 0.266-0.116 0.368-0.172 0.738-0.342 1.124-0.488 0.214-0.080 0.432-0.14 0.648-0.21 0.138-0.046 0.274-0.092 0.414-0.134 0.67-0.2 1.344-0.356 2.020-0.466 0.12-0.020 0.24-0.032 0.36-0.048 0.728-0.1 1.454-0.166 2.176-0.166h0.004c0.722 0 1.45 0.066 2.176 0.166 0.12 0.016 0.24 0.028 0.36 0.048 0.676 0.11 1.35 0.266 2.020 0.466 0.138 0.042 0.274 0.088 0.41 0.134 0.216 0.070 0.434 0.13 0.65 0.21 0.39 0.146 0.76 0.318 1.132 0.49 0.084 0.040 0.172 0.070 0.256 0.112 0.65 0.316 1.262 0.676 1.85 1.068 0.122 0.082 0.24 0.168 0.36 0.252 0.542 0.382 1.058 0.788 1.542 1.228 0.056 0.050 0.114 0.094 0.168 0.146 0.518 0.484 0.992 1.006 1.436 1.55 0.112 0.138 0.22 0.276 0.328 0.418 0.432 0.566 0.838 1.15 1.192 1.768 0.036 0.062 0.064 0.128 0.098 0.19 0.34 0.614 0.632 1.252 0.89 1.906 0.032 0.082 0.080 0.154 0.11 0.236l47.966 127.91c3.104 8.27-1.088 17.492-9.362 20.596zM535.982 61.524l-12.886 34.364h25.772l-12.886-34.364zM456.040 47.944h-239.822v512.324c0 8.836-7.164 16-16 16s-16-7.164-16-16v-528.324c0-8.836 7.164-16 16-16h255.822c8.836 0 16 7.164 16 16s-7.164 16-16 16zM312.14 720.144h239.822v-512.322c0-8.836 7.164-16 16-16s16 7.164 16 16v528.322c0 8.836-7.164 16-16 16h-255.822c-8.836 0-16-7.164-16-16s7.162-16 16-16z" />
<glyph unicode="&#xe91e;" glyph-name="people" d="M1022.265 468.052c-6.992 39.798-36.539 73.474-75.277 85.788-16.413 5.218-33.171 6.653-49.808 4.265-0.711-0.102-0.982 0.571-1.066 0.864-23.541 81.63-73.874 155.131-141.727 206.964-70.115 53.562-153.931 81.872-242.389 81.872s-172.274-28.311-242.389-81.872c-67.852-51.832-118.185-125.334-141.727-206.962-0.084-0.293-0.357-0.966-1.066-0.866-16.633 2.391-33.393 0.956-49.808-4.265-38.738-12.317-68.285-45.99-75.277-85.788-5.786-32.928 3.052-66.293 24.249-91.534 21.205-25.257 52.263-39.74 85.213-39.74 5.17 0 10.397 0.373 15.535 1.106 0.721 0.102 1.028-0.413 1.156-0.86 23.543-81.628 73.876-155.125 141.729-206.958 70.115-53.56 153.929-81.868 242.385-81.868s172.27 28.309 242.385 81.868c67.852 51.832 118.185 125.33 141.729 206.958 0.128 0.449 0.433 0.96 1.156 0.86 5.136-0.733 10.363-1.106 15.535-1.106 32.948 0 64.009 14.485 85.213 39.74 21.197 25.241 30.034 58.604 24.249 91.534zM974.996 395.847c-15.479-18.435-38.149-29.010-62.193-29.010-3.754 0-7.551 0.271-11.285 0.804-15.515 2.21-29.928-7.16-34.291-22.289-21.77-75.478-68.325-143.452-131.093-191.398-64.828-49.521-142.332-75.696-224.136-75.696-81.802 0-159.308 26.177-224.136 75.696-62.768 47.946-109.324 115.921-131.093 191.4-3.938 13.647-16.056 22.609-29.772 22.609-1.491 0-3-0.106-4.517-0.323-3.736-0.535-7.531-0.804-11.285-0.804-24.044 0-46.712 10.573-62.191 29.010-15.696 18.694-21.968 42.489-17.661 67.005 5.078 28.906 26.579 53.377 54.778 62.341 12.060 3.836 24.315 4.898 36.425 3.156 15.465-2.22 29.856 7.152 34.225 22.291 21.768 75.482 68.323 143.456 131.091 191.404 36.301 27.73 76.578 48.135 119.356 60.728-14.168-16.267-22.026-34.966-22.026-53.345 0-22.305 11.667-41.906 32.854-55.195 21.982-13.788 53.594-20.778 93.957-20.778 32.814 0 58.596 3.918 76.628 11.643 26.503 11.357 30.461 28.497 30.461 37.704 0 33.567-48.040 60.874-107.089 60.874-8.301 0-15.030-6.73-15.030-15.030s6.73-15.030 15.030-15.030c50.036 0 77.029-21.872 77.029-30.814 0-2.403-3.786-6.451-12.239-10.072-9.812-4.204-29.016-9.215-64.79-9.215-34.139 0-61.105 5.595-77.985 16.182-12.453 7.81-18.766 17.814-18.766 29.73 0 31.593 42.263 68.317 96.75 68.317 81.804 0 159.312-26.177 224.14-75.698 62.768-47.948 109.324-115.925 131.091-191.406 4.365-15.136 18.754-24.507 34.223-22.289 12.112 1.739 24.367 0.679 36.425-3.156 28.199-8.966 49.7-33.437 54.778-62.341 4.307-24.517-1.968-48.313-17.663-67.007zM383.742 497.099c8.301 0 15.030 6.73 15.030 15.030s-6.73 15.030-15.030 15.030c-23.319 0-58.103-3.78-90.788-36.465-5.87-5.87-5.87-15.387 0-21.257 2.934-2.934 6.782-4.403 10.627-4.403s7.693 1.467 10.627 4.401c24.519 24.519 50.038 27.664 69.534 27.664zM656.29 318.74h-288.579c-8.301 0-15.030-6.73-15.030-15.030 0-79.009 71.472-143.288 159.32-143.288s159.32 64.279 159.32 143.288c0 8.301-6.73 15.030-15.030 15.030zM512 190.483c-65.457 0-119.706 42.842-128.125 98.197h256.251c-8.419-55.355-62.668-98.197-128.125-98.197zM368.712 415.936c0-8.301 6.73-15.030 15.030-15.030s15.030 6.73 15.030 15.030c0 25.968-21.126 47.095-47.095 47.095s-47.095-21.126-47.095-47.095c0-8.301 6.73-15.030 15.030-15.030s15.030 6.73 15.030 15.030c0 9.393 7.641 17.034 17.034 17.034s17.034-7.641 17.034-17.034zM672.322 463.030c-25.968 0-47.095-21.126-47.095-47.095 0-8.301 6.73-15.030 15.030-15.030s15.030 6.73 15.030 15.030c0 9.393 7.641 17.034 17.034 17.034s17.034-7.641 17.034-17.034c0-8.301 6.73-15.030 15.030-15.030s15.030 6.73 15.030 15.030c0 25.968-21.126 47.095-47.095 47.095zM640.258 527.159c-8.301 0-15.030-6.73-15.030-15.030s6.73-15.030 15.030-15.030c19.495 0 45.014-3.144 69.534-27.662 2.934-2.934 6.782-4.403 10.627-4.403s7.693 1.467 10.627 4.401c5.87 5.87 5.87 15.387 0 21.257-32.686 32.688-67.469 36.467-90.788 36.467z" />
<glyph unicode="&#xe91f;" glyph-name="animals" d="M201.645 476.534v43.972h49.239v-43.972h-49.239zM307.178 278.854c42.658 46.163 66.153 105.989 66.153 168.461 0 62.469-23.493 122.296-66.153 168.459l-32.295-29.845c35.129-38.014 54.474-87.24 54.474-138.616 0-51.374-19.345-100.603-54.474-138.614l32.295-29.845zM977.849 446.509c0-44.531 16.13-87.741 45.418-121.668l-12.652-10.922-17.872-21.952-124.675 101.509 27.763 34.098 44.873-36.536c-4.505 18.033-6.828 36.651-6.828 55.466 0 18.734 3.176 38.395 9.202 58.133l-387.922-312.371c-13.204-10.631-27.922-19.345-43.61-26.139l21.011-75.478c10.8-38.795 59.367-71.572 106.055-71.572h172.529v-43.972h-271.382c-67.020 0-132.214 45.572-148.415 103.749l-20.791 74.689c-31.965 6.999-62.259 20.669-87.431 40.987l-261.337 210.918c-13.844 11.171-21.786 27.043-21.786 43.547 0 16.187 7.673 31.66 21.050 42.457l258.804 208.874c25.833 20.85 57.21 34.64 90.494 41.397l20.994 75.419c16.204 58.18 81.397 103.752 148.417 103.752h271.382v-43.972h-172.529c-46.688 0-95.255-32.776-106.055-71.572l-21.28-76.443c19.050-7.766 36.946-18.082 52.881-30.944l236.972-191.258-27.617-34.217-236.974 191.258c-62.877 50.748-167.777 51.828-229.071 2.362l-241.696-195.069h74.039v-43.972h-74.801l245.73-198.323c59.455-47.986 158.753-49.007 216.84-2.233l465.257 374.65 25.040-31.095 6.124-4.749c-28.899-37.276-46.151-81.692-46.151-118.81zM417.349 746.595c0.655 0.005 1.312 0.007 1.967 0.007 16.719 0 33.477-1.668 49.854-5.003l21.028 75.544c6.151 22.091 19.367 42.367 37.061 59.018-42.543-5.128-83.713-35.473-93.555-70.812l-16.355-58.754zM490.198 78.857l-20.618 74.066c-16.934-3.518-34.393-5.12-51.86-4.847l15.984-57.425c9.842-35.336 51.012-65.682 93.555-70.809-17.696 16.648-30.912 36.924-37.061 59.015zM439.545 333.924c18.011 34.879 27.531 74.090 27.531 113.391 0 39.291-9.52 78.502-27.534 113.391l-39.071-20.171c15.016-29.090 22.633-60.454 22.633-93.22 0-32.774-7.614-64.135-22.628-93.215l39.069-20.176z" />
<glyph unicode="&#xe920;" glyph-name="summer" d="M809.404 629.655h-595.644c-48.327 0-87.645-39.318-87.645-87.645v-153.063c0-18.335 10.974-34.64 27.957-41.541l161.782-65.752c5.428-2.206 11.096-3.323 16.849-3.323 18.501 0 34.87 11.109 41.704 28.308l79.401 199.853c9.466 23.821 32.144 39.212 57.776 39.212s48.31-15.391 57.774-39.215l39.747-100.039c0.015-0.034 0.028-0.069 0.041-0.106l29.507-74.268c0.017-0.045 0.034-0.090 0.054-0.136l10.052-25.301c6.834-17.196 23.203-28.31 41.702-28.31 5.753 0 11.424 1.118 16.854 3.323l161.778 65.752c16.985 6.901 27.959 23.207 27.959 41.541v153.061c0 48.33-39.318 87.648-87.648 87.648zM864.744 388.947c0-5.124-3.067-9.681-7.814-11.611l-161.776-65.752c-1.549-0.627-3.127-0.946-4.693-0.946-5.26 0-9.735 3.039-11.678 7.933l-6.197 15.596 137.257 137.259c6.309 6.311 6.309 16.537 0 22.846-6.309 6.306-16.537 6.306-22.843 0l-127.403-127.405-16.563 41.692 110.321 110.321c6.309 6.311 6.309 16.537 0 22.846-6.309 6.306-16.537 6.306-22.843 0l-100.467-100.467-30.657 77.163c-14.383 36.201-48.847 59.592-87.801 59.592-38.952 0-73.415-23.391-87.801-59.59l-79.401-199.853c-1.945-4.891-6.418-7.93-11.68-7.93-1.566 0-3.145 0.319-4.689 0.946l-110.364 44.855 133.61 133.61c6.309 6.311 6.309 16.537 0 22.846-6.309 6.306-16.537 6.306-22.843 0l-143.253-143.253-18.928 7.693c-4.747 1.93-7.812 6.487-7.812 11.611v15.294l129.912 129.914c6.309 6.311 6.309 16.537 0 22.846-6.309 6.306-16.537 6.306-22.843 0l-107.075-107.069v92.076c0 30.513 24.825 55.338 55.338 55.338h595.646c30.513 0 55.338-24.825 55.338-55.338v-153.061zM1007.846 572.801h-57.21c-11.575 53.135-52.43 95.46-104.768 109.11l-32.381 64.763c-18.279 36.559-55.028 59.271-95.903 59.271h-412.002c-40.875 0-77.626-22.712-95.905-59.271l-32.381-64.763c-52.338-13.651-93.194-55.974-104.768-109.11h-56.374c-8.921 0-16.154-7.23-16.154-16.154v-174.856c0-8.923 7.233-16.154 16.154-16.154h55.717c7.385-31.702 29.619-58.304 60.77-70.962l46.234-18.792 53.805-121.872c21.135-47.873 73.323-73.404 124.097-60.716 0.687 0.172 1.361 0.39 2.018 0.648 0.976 0.388 98.21 38.551 152.788 38.551 54.509 0 151.812-38.168 152.79-38.551 0.657-0.258 1.331-0.476 2.016-0.648 8.742-2.186 17.523-3.237 26.184-3.237 41.638 0 80.415 24.323 97.911 63.953l53.807 121.872 46.234 18.792c31.151 12.66 53.385 39.262 60.77 70.962h56.551c8.921 0 16.154 7.23 16.154 16.154v174.856c0.002 8.921-7.23 16.154-16.152 16.154zM238.572 732.223c12.772 25.544 38.45 41.414 67.010 41.414h412c28.56 0 54.235-15.867 67.008-41.414l22.824-45.646h-591.663l22.822 45.646zM32.307 540.494h36.886v-142.549h-36.886v142.549zM760.928 167.062c-14.633-33.149-50.57-50.983-85.744-42.656-11.628 4.532-105.535 40.397-163.602 40.397s-151.974-35.865-163.602-40.397c-35.176-8.32-71.113 9.511-85.746 42.656l-40.322 91.331 72.504-29.469c12.268-4.984 25.15-7.513 38.288-7.513 41.969 0.004 79.103 25.21 94.598 64.212l12.257 30.853-2.404-57.066c-0.009-0.224-0.015-0.452-0.015-0.678 0-20.491 10.063-39.542 26.918-50.966 16.632-11.269 32.622-16.985 47.522-16.985 14.148 0 29.352 4.982 45.191 14.812 7.581 4.706 9.912 14.663 5.208 22.243-4.704 7.584-14.663 9.914-22.243 5.21-10.498-6.513-20.233-9.957-28.157-9.957-8.206 0-18.37 3.95-29.398 11.424-7.892 5.346-12.636 14.269-12.733 23.916l6.281 149.088 30.974 77.96c1.088 2.738 3.252 3.31 4.878 3.31 1.624 0 3.791-0.575 4.876-3.31l30.978-77.975 6.291-142.99c0.381-8.669 7.532-15.443 16.126-15.443 0.239 0 0.48 0.004 0.722 0.015 8.913 0.394 15.82 7.937 15.428 16.849l-2.201 50.035 12.055-30.343c15.497-39.006 52.631-64.212 94.6-64.212 13.14 0 26.022 2.529 38.286 7.513l72.504 29.469-40.322-91.333zM921.663 388.947c0-28.396-16.998-53.65-43.303-64.341l-161.776-65.752c-8.385-3.407-17.172-5.137-26.122-5.137-28.65 0-53.996 17.207-64.576 43.837l-79.401 199.851c-5.716 14.39-19.417 23.688-34.901 23.688s-29.184-9.298-34.903-23.688l-79.403-199.851c-10.577-26.626-35.926-43.832-64.576-43.837-8.947 0-17.735 1.727-26.122 5.137l-161.778 65.752c-26.305 10.692-43.303 35.945-43.303 64.341v153.061c0 61.899 50.359 112.259 112.259 112.259h595.646c61.899 0 112.259-50.361 112.259-112.259v-153.061zM991.693 397.945h-37.722v142.549h37.722v-142.549z" />
<glyph unicode="&#xe921;" glyph-name="transport" d="M299.11 299.208c-4.203-1.074-7.804-3.778-10.013-7.512-2.209-3.732-2.841-8.192-1.76-12.393l34.456-133.795c1.9-7.375 8.536-12.271 15.813-12.271 1.349 0 2.721 0.168 4.087 0.521 8.739 2.248 13.998 11.159 11.75 19.898l-30.376 117.949 172.592 44.18v-167.36c0-9.026 7.316-16.34 16.34-16.34s16.34 7.314 16.34 16.34v167.36l172.592-44.18-30.376-117.949c-2.251-8.739 3.009-17.648 11.75-19.898 8.732-2.253 17.648 3.009 19.9 11.75l34.456 133.795c1.083 4.201 0.449 8.66-1.76 12.393s-5.811 6.438-10.013 7.512l-196.549 50.313v53.714c0 0.078 0.011 0.155 0.011 0.231s-0.011 0.155-0.011 0.231v458.758c83.543-68.832 132.584-171.609 132.584-280.835v-161.813h-83.55c-9.024 0-16.34-7.314-16.34-16.34s7.316-16.34 16.34-16.34h143.464c9.024 0 16.34 7.314 16.34 16.34s-7.316 16.34-16.34 16.34h-27.234v161.813c0 127.828-61.632 247.535-165.265 322.036v40.003c0 9.026-7.316 16.34-16.34 16.34s-16.34-7.314-16.34-16.34v-523.851h-192.475c-9.024 0-16.34-7.314-16.34-16.34s7.316-16.34 16.34-16.34h192.475v-37.605l-196.549-50.315zM16.34 66.723c30.872 0 60.577 12.268 82.634 33.522 22.055-21.256 51.731-33.522 82.56-33.522 30.907 0 60.629 12.26 82.693 33.507 22.009-21.245 51.69-33.507 82.58-33.507 31.319 0 60.54 12.007 82.643 33.478 22.007-21.227 51.677-33.478 82.554-33.478 30.851 0 60.534 12.249 82.587 33.478 22.055-21.471 51.261-33.478 82.606-33.478 30.87 0 60.575 12.268 82.632 33.522 22.057-21.253 51.76-33.522 82.634-33.522 30.89 0 60.568 12.26 82.578 33.504 22.057-21.243 51.753-33.504 82.615-33.504 9.024 0 16.34 7.314 16.34 16.34s-7.316 16.34-16.34 16.34c-27.613 0-52.943 12.846-69.492 35.239-3.081 4.17-7.957 6.63-13.142 6.63-5.205-0.004-10.083-2.475-13.159-6.654-16.231-22.051-42.176-35.215-69.401-35.215-27.21 0-53.187 13.173-69.492 35.239-3.081 4.17-7.957 6.63-13.142 6.63s-10.061-2.46-13.142-6.63c-16.306-22.064-42.285-35.239-69.492-35.239-27.561 0-52.864 12.846-69.421 35.241-3.083 4.168-7.959 6.628-13.142 6.628s-10.059-2.46-13.14-6.63c-16.306-22.064-42.285-35.239-69.492-35.239-27.227 0-53.172 13.164-69.403 35.215-3.074 4.174-7.944 6.643-13.127 6.654-5.205 0-10.072-2.449-13.155-6.602-16.63-22.412-41.966-35.267-69.51-35.267-27.225 0-53.172 13.164-69.401 35.215-3.076 4.179-7.955 6.649-13.144 6.654-5.198 0-10.077-2.46-13.157-6.63-16.303-22.066-42.311-35.239-69.571-35.239-27.156 0-53.106 13.175-69.423 35.243-3.083 4.168-7.957 6.625-13.142 6.625s-10.059-2.462-13.14-6.63c-16.547-22.393-41.875-35.239-69.49-35.239-9.024 0-16.34-7.314-16.34-16.34s7.32-16.34 16.345-16.34zM1007.657-31.319c-27.613 0-52.943 12.846-69.492 35.239-3.081 4.17-7.957 6.63-13.142 6.63-5.205-0.004-10.083-2.475-13.159-6.654-16.231-22.051-42.176-35.215-69.401-35.215-27.21 0-53.187 13.173-69.492 35.239-3.081 4.17-7.957 6.63-13.142 6.63s-10.061-2.46-13.142-6.63c-16.306-22.064-42.285-35.239-69.492-35.239-27.561 0-52.864 12.846-69.421 35.241-3.083 4.168-7.959 6.628-13.142 6.628s-10.059-2.46-13.14-6.63c-16.306-22.064-42.285-35.239-69.492-35.239-27.227 0-53.172 13.164-69.403 35.215-3.074 4.174-7.944 6.643-13.127 6.654-5.205 0-10.072-2.449-13.155-6.602-16.63-22.412-41.966-35.267-69.51-35.267-27.225 0-53.172 13.164-69.401 35.215-3.076 4.179-7.955 6.649-13.144 6.654-5.198 0-10.077-2.46-13.157-6.63-16.303-22.066-42.311-35.239-69.571-35.239-27.156 0-53.106 13.175-69.423 35.243-3.083 4.168-7.957 6.625-13.142 6.625s-10.059-2.462-13.14-6.63c-16.547-22.393-41.875-35.239-69.49-35.239-9.024 0-16.34-7.314-16.34-16.34s7.316-16.34 16.34-16.34c30.872 0 60.577 12.268 82.634 33.522 22.055-21.256 51.731-33.522 82.56-33.522 30.907 0 60.629 12.26 82.693 33.507 22.009-21.245 51.69-33.507 82.58-33.507 31.319 0 60.54 12.007 82.643 33.478 22.007-21.227 51.677-33.478 82.554-33.478 30.851 0 60.534 12.249 82.587 33.478 22.055-21.471 51.261-33.478 82.606-33.478 30.87 0 60.575 12.268 82.632 33.522 22.057-21.253 51.76-33.522 82.634-33.522 30.89 0 60.568 12.26 82.578 33.504 22.057-21.243 51.753-33.504 82.615-33.504 9.024 0 16.34 7.314 16.34 16.34s-7.31 16.34-16.336 16.34z" />
<glyph unicode="&#xe922;" glyph-name="market" d="M842.666 216.001c21.532 0 41.067-8.766 55.167-22.832 14.102-14.1 22.866-33.635 22.866-55.167s-8.764-41.067-22.866-55.167c-14.1-14.102-33.599-22.832-55.167-22.832-21.532 0-41.067 8.736-55.167 22.832-14.102 14.098-22.832 33.635-22.832 55.167s8.766 41.067 22.832 55.167c14.1 14.098 33.635 22.832 55.167 22.832v0zM875.198 170.534c-8.299 8.301-19.834 13.468-32.532 13.468s-24.199-5.167-32.532-13.468c-8.331-8.333-13.468-19.834-13.468-32.532s5.167-24.199 13.468-32.532c8.299-8.301 19.834-13.468 32.532-13.468s24.199 5.167 32.532 13.468c8.301 8.333 13.468 19.834 13.468 32.532s-5.167 24.198-13.468 32.532zM383.334 235.767c-4.533-7.533-14.333-9.934-21.867-5.401s-9.934 14.333-5.399 21.867l23.467 38.632c3 4.934 8.232 7.667 13.633 7.667v0.134h485.632c8.833 0 16.001-7.166 16.001-16.001s-7.166-15.999-16.001-15.999h-476.732l-18.733-30.899zM354.402 514.667c-8.833 0-16.001 7.166-16.001 16.001s7.166 16.001 16.001 16.001h609.363l13.034 69.567c1.6 8.667 9.966 14.366 18.599 12.766 8.667-1.6 14.366-9.967 12.766-18.599l-15.233-81.332c-0.8-8.066-7.667-14.4-15.931-14.4l-622.6-0.003zM992.499 629.333c8.833 0 16.001-7.166 16.001-16.001s-7.166-16.001-16.001-16.001h-674.232c-8.833 0-16.001 7.166-16.001 16.001s7.166 16.001 16.001 16.001h674.232zM331.168 349.333c-8.833 0-16.001 7.166-16.001 16.001s7.166 15.999 16.001 15.999h601.631l13.033 69.567c1.6 8.667 9.967 14.366 18.634 12.766s14.366-9.967 12.766-18.634l-15.233-81.332c-0.801-8.063-7.667-14.396-15.932-14.396l-614.9 0.030zM135.434 835.999c8.833 0 16.001-7.166 16.001-16.001s-7.166-16.001-16.001-16.001h-119.433c-8.833 0-16.001 7.166-16.001 16.001s7.168 16.001 16.002 16.001h119.431zM345.867 371.634c3.467-8.102-0.268-17.533-8.366-21-8.1-3.467-17.533 0.266-21 8.366l-195.766 454.7c-3.467 8.1 0.266 17.5 8.366 20.967s17.533-0.266 21-8.366l195.766-454.666zM961.531 463.932c8.801 0 15.934-7.133 15.934-15.932 0-8.801-7.136-15.932-15.934-15.932l-570.932 0.035c-6.532 0-12.166 3.934-14.6 9.567h-0.033l-36.166 82.666c-3.5 8.066 0.201 17.467 8.267 21s17.467-0.201 21-8.266l32-73.1 560.464-0.038zM66.801 743.699c3.5-8.066-0.201-17.467-8.266-21-8.066-3.5-17.467 0.201-21 8.266l-36.166 82.666c-3.5 8.066 0.201 17.467 8.266 21 8.066 3.5 17.467-0.201 21-8.266l36.166-82.666zM332.901 619.7c3.5-8.066-0.201-17.467-8.267-21s-17.467 0.201-21 8.266l-36.166 82.666c-3.5 8.066 0.201 17.5 8.267 21 2.066 0.9 4.233 1.334 6.367 1.334v0.033h725.897c8.833 0 16.001-7.2 16.001-16.001 0-8.833-7.166-16.001-16.001-16.001h-701.496l26.4-60.297zM91.201 753.332c8.833 0 16.001-7.166 16.001-15.999s-7.166-16.001-16.001-16.001h-39.032c-8.833 0-16.001 7.166-16.001 16.001s7.166 15.999 16.001 15.999h39.032zM305.333 216.001c21.534 0 41.067-8.766 55.167-22.832 14.1-14.1 22.832-33.635 22.832-55.167s-8.734-41.067-22.832-55.167c-14.098-14.102-33.633-22.832-55.167-22.832s-41.067 8.736-55.167 22.832c-14.1 14.098-22.832 33.635-22.832 55.167s8.734 41.067 22.832 55.167c14.098 14.1 33.635 22.832 55.167 22.832v0zM337.867 170.534c-8.333 8.301-19.834 13.468-32.534 13.468s-24.199-5.167-32.534-13.468c-8.299-8.333-13.466-19.834-13.466-32.532s5.167-24.199 13.466-32.532c8.333-8.301 19.834-13.468 32.534-13.468s24.199 5.167 32.534 13.468c8.299 8.333 13.466 19.834 13.466 32.532s-5.165 24.198-13.466 32.532z" />
<glyph unicode="&#xe923;" glyph-name="game" d="M948.851 878.655c-35.622 35.622-82.549 58.586-135.71 66.408-47.398 6.978-98.824 1.826-149.413-14.855-20.814 19.233-47.684 29.792-76.185 29.792-30.020 0-58.24-11.692-79.462-32.917-21.228-21.225-32.917-49.445-32.917-79.465 0-13.051 2.215-25.759 6.457-37.701-58.158-63.834-95.257-140.727-105.189-218.241l-0.054 0.052-15.291-124.913c-11.476-93.745-53.714-182.989-118.929-251.297l-6.139-6.43-0.43 0.43c-6.912 6.918-18.127 6.915-25.045 0l-199.702-199.699c-6.915-6.918-6.915-18.13 0.003-25.045l43.584-43.587c3.324-3.321 7.828-5.188 12.525-5.188s9.201 1.866 12.523 5.188l199.699 199.699c3.324 3.321 5.188 7.828 5.188 12.523 0 4.697-1.866 9.201-5.188 12.523l-0.801 0.801c72.88 73.923 169.327 119.82 272.952 129.599l77.765 7.338c10.351 0.283 20.866 1.063 31.516 2.387 84.609 10.534 168.077 53.207 235.033 120.161 66.962 66.964 109.644 150.44 120.18 235.055 10.746 86.263-13.040 163.467-66.97 217.383zM66.951-21.244l-18.541 18.541 174.652 174.654 18.544-18.541-174.654-174.654zM651.823 805.282c-9.212 12.923-14.196 28.334-14.196 44.524 0 15.283 4.433 29.879 12.681 42.339 9.207-12.923 14.19-28.337 14.19-44.524 0-15.283-4.43-29.879-12.675-42.339zM623.539 915.675c-13.841-19.043-21.331-41.875-21.331-65.872 0-25.301 8.335-49.306 23.653-68.937-11.534-6.645-24.65-10.207-38.317-10.207-12.773 0-25.072 3.095-36.042 8.923 31.944 39.857 32.756 96.581 2.433 137.291 10.343 5.030 21.77 7.7 33.609 7.7 12.757 0.005 25.037-3.084 35.996-8.899zM526.464 894.425c19.476-27.339 18.934-64.635-1.621-91.424-9.253 12.942-14.258 28.391-14.258 44.619 0 17.149 5.588 33.432 15.879 46.804zM393.974 446.429c11.615-27.5 28.119-52.267 49.251-73.397 19.558-19.563 42.192-35.132 67.196-46.551-73.544-12.88-142.743-42.707-202.269-86.991 44.314 60.992 74.046 132.375 85.822 206.939zM980.672 665.648c-9.569-76.83-48.66-152.969-110.079-214.385-61.406-61.406-137.533-100.491-214.361-110.058-75.179-9.362-141.936 10.836-187.959 56.872-45.2 45.189-65.553 110.646-57.303 184.313 7.662 68.422 39.045 136.847 88.985 194.83 2.534-3.139 5.231-6.171 8.122-9.065 21.225-21.225 49.445-32.917 79.465-32.917 30.018 0 58.237 11.692 79.46 32.917 21.228 21.225 32.917 49.445 32.917 79.462 0 18.675-4.528 36.652-13.059 52.684 92.702 27.023 180.046 10.204 236.948-46.698 46.031-46.020 66.229-112.771 56.864-187.956z" />
<glyph unicode="&#xe924;" glyph-name="table-tennis" horiz-adv-x="951" d="M257.463 864.914c-74.606-26.331-149.211-100.937-178.469-178.469-52.663-137.509 7.314-332.069 117.029-377.417 76.069-32.183 86.309-52.663 74.606-157.989-11.703-100.937 8.777-141.897 65.829-141.897 55.589 0 76.069 40.96 70.217 150.674-2.926 83.383 0 103.863 20.48 117.029 43.886 29.257 59.977-7.314 57.051-121.417-2.926-112.64 11.703-146.286 62.903-146.286 54.126 0 67.291 27.794 67.291 149.211v115.566l64.366 27.794c188.709 80.457 201.874 396.434 21.943 529.554-46.811 35.109-153.6 59.977-184.32 43.886-16.091-10.24-2.926-16.091 45.349-20.48 188.709-21.943 298.423-232.594 215.040-413.989-36.571-81.92-73.143-109.714-146.286-112.64-33.646-1.463-64.366-7.314-68.754-14.629-4.389-5.851 1.463-11.703 11.703-11.703 14.629 0 19.017-32.183 19.017-128.731v-127.269l-39.497-4.389c-46.811-5.851-45.349-8.777-40.96 137.509 1.463 64.366-4.389 108.251-13.166 115.566-11.703 5.851-4.389 19.017 19.017 38.034 89.234 70.217 124.343 251.611 68.754 371.566-33.646 74.606-115.566 147.749-187.246 166.766-68.754 19.017-71.68 19.017-141.897-5.851zM475.429 807.863c111.177-86.309 146.286-245.76 81.92-378.88-19.017-38.034-46.811-76.069-62.903-84.846-38.034-20.48-277.943-20.48-315.977 0-46.811 24.869-95.086 140.434-95.086 226.743 0 223.817 228.206 361.326 392.046 236.983z" />
<glyph unicode="&#xe925;" glyph-name="technology" d="M512 768c-176.448 0-320-143.552-320-320h42.667c0 152.917 124.416 277.333 277.333 277.333v42.667zM512 618.667c-94.251 0-170.667-76.416-170.667-170.667 0-94.272 76.416-170.667 170.667-170.667s170.667 76.416 170.667 170.667c0 94.251-76.416 170.667-170.667 170.667zM512 320c-70.571 0-128 57.429-128 128s57.429 128 128 128c70.571 0 128-57.429 128-128s-57.429-128-128-128zM512 960c-282.773 0-512-229.227-512-512s229.227-512 512-512 512 229.227 512 512c0 282.773-229.227 512-512 512zM512-21.333c-258.795 0-469.333 210.539-469.333 469.333s210.539 469.333 469.333 469.333 469.333-210.539 469.333-469.333c0-258.795-210.539-469.333-469.333-469.333z" />
<glyph unicode="&#xe926;" glyph-name="pinterest" d="M512 960c-282.77 0-512-229.23-512-512s229.226-512 512-512c282.77 0 512 229.23 512 512s-229.23 512-512 512zM561.644 275.882c-46.52 3.614-66.042 26.656-102.504 48.808-20.060-105.176-44.564-206.016-117.14-258.686-22.404 158.968 32.894 278.364 58.57 405.114-43.784 73.706 5.27 222.034 97.62 185.474 113.626-44.948-98.4-274.008 43.932-302.616 148.62-29.868 209.288 257.858 117.142 351.424-133.158 135.106-387.598 3.080-356.31-190.356 7.614-47.292 56.472-61.638 19.524-126.902-85.22 18.892-110.65 86.102-107.376 175.712 5.268 146.674 131.784 249.364 258.686 263.566 160.484 17.964 311.106-58.908 331.906-209.876 23.412-170.39-72.448-354.93-244.050-341.662z" />
<glyph unicode="&#xe927;" glyph-name="snooker" d="M473.354 949.443c-71.045-7.26-124.232-21.985-182.518-50.637-51.22-25.119-87.726-51.026-129.331-91.259-42.783-41.8-73.994-84.787-100.485-138.557-24.73-50.637-39.844-100.291-48.282-158.966-3.338-23.163-3.338-100.485 0-123.648 13.937-97.341 51.62-184.678 110.889-256.707 138.557-168.192 368.179-228.25 570.522-149.35 129.526 50.637 234.721 156.027 285.747 286.341 20.808 53.576 31.406 104.991 33.556 164.854 4.71 135.813-45.732 266.711-140.718 364.841-43.182 44.554-85.371 75.366-140.329 102.246-49.459 24.34-94.986 38.666-150.139 47.104-19.804 2.949-91.832 5.499-108.913 3.738zM578.355 912.343c48.865-7.26 94.208-21.391 140.524-44.155 122.665-60.447 213.729-172.902 247.091-305.183 10.598-42.394 13.548-67.123 13.548-114.811s-2.949-72.417-13.548-114.811c-41.81-165.642-173.885-297.718-339.528-339.528-42.394-10.598-67.123-13.537-114.811-13.537s-72.417 2.949-114.811 13.537c-165.837 41.81-297.134 173.107-339.528 339.333-10.598 41.994-13.537 67.123-13.537 115.005 0 30.812 0.983 48.671 3.533 65.751 32.573 215.88 203.131 378.778 420.188 401.152 24.914 2.744 84.193 1.167 110.879-2.755zM585.226 563.794c-73.011-9.81-136.591-55.347-167.997-120.504-60.447-125.020 6.083-269.855 140.524-306.36 17.664-4.71 23.163-5.294 52.992-5.499 28.457-0.195 35.912 0.594 50.637 4.321 82.033 20.603 142.090 80.66 162.703 162.693 3.727 14.715 4.516 22.18 4.321 50.637-0.195 29.829-0.788 35.328-5.499 52.992-21.78 79.882-84.982 140.913-163.871 157.993-20.828 4.506-54.968 6.277-73.81 3.727zM654.899 526.694c65.751-15.892 117.555-66.724 135.608-133.458 6.277-23.357 6.482-67.901 0-91.259-17.469-64.563-68.096-115.2-132.669-132.669-23.357-6.482-67.901-6.277-91.259 0-67.318 18.053-117.166 69.274-133.847 136.991-5.888 23.941-5.693 59.464 0.195 83.804 18.053 74.578 81.060 130.908 157.204 140.524 17.664 2.355 45.732 0.584 64.768-3.932zM552.643 479.007c-6.871-5.304-7.66-10.404-7.66-54.17 0-37.878-0.389-43.377-2.949-43.377-1.761 0-5.294-2.161-7.854-4.905l-4.905-4.71v-148.756l4.516-4.116c4.516-4.321 5.294-4.321 78.305-4.321 69.673 0 73.984 0.195 78.305 3.727l4.71 3.727 0.584 73.984 0.594 73.789-5.888 5.693c-3.144 3.338-7.26 5.888-8.837 5.888-2.744 0-3.144 5.304-3.144 45.138v45.332l-4.905 4.71-4.71 4.905h-56.525c-41.38-0.184-57.283-0.768-59.638-2.54zM645.079 414.833v-33.362h-66.724v66.724h66.724v-33.362zM662.743 298.056v-50.043h-100.086v100.086h100.086v-50.043z" />
<glyph unicode="&#xe928;" glyph-name="lion" d="M509.414 270.408h-6.301c-6.829 0-12.371 5.534-12.371 12.371s5.542 12.371 12.371 12.371h6.301c5.881 0 9.031 5.922 9.064 5.988 19.712 37.741 43.514 40.1 56.315 41.37 1.641 0.165 3.909 0.388 4.619 0.602 0.371 0.437 0.899 2.557 0.899 4.033 0 2.078-3.043 3.761-3.076 3.777-17.13 9.312-58.954 10.499-73.742 10.268-6.813-0.511-12.47 5.295-12.611 12.124-0.132 6.829 5.295 12.479 12.124 12.611 6.029 0.132 59.754 0.792 85.19-12.809 6.466-3.134 16.866-11.827 16.866-25.733 0.256-7.654-3.134-22.631-17.559-27.646-3.34-1.163-6.697-1.493-10.26-1.847-10.392-1.031-23.308-2.309-36.669-27.885-3.439-7.093-14.087-19.596-31.16-19.596zM426.278 335.003c-6.21 0-11.555 4.652-12.272 10.969-0.371 3.225-8.462 79.903 35.465 162.709 3.208 6.037 10.697 8.322 16.726 5.13 6.029-3.2 8.33-10.689 5.13-16.726-40.191-75.746-32.817-147.616-32.743-148.333 0.751-6.788-4.132-12.899-10.912-13.658-0.47-0.066-0.932-0.091-1.394-0.091zM415.523 192.105c-2.524 0-5.056 0.074-7.613 0.239-28.512 1.781-54.781 13.303-73.948 32.43-19.596 19.547-29.485 44.661-27.852 70.707 3.48 55.985 34.78 72.884 60.422 77.198 6.656 1.146 13.114-3.406 14.26-10.145 1.138-6.738-3.406-13.122-10.145-14.252-15.819-2.664-37.156-11.192-39.836-54.352-1.188-18.854 6.144-37.189 20.636-51.638 14.912-14.87 35.514-23.844 58.014-25.254 45.882-2.911 85.132 26.97 87.606 66.492 0.429 6.813 6.26 12.025 13.122 11.571 6.813-0.429 12-6.301 11.571-13.122-3.175-50.855-50.096-89.874-106.238-89.874zM607.437 192.105c-56.15 0-103.062 39.011-106.246 89.874-0.429 6.821 4.759 12.693 11.571 13.122 7.002 0.454 12.693-4.759 13.122-11.571 2.474-39.523 41.807-69.379 87.606-66.492 45.84 2.87 81.124 37.362 78.649 76.884-2.705 43.16-24.025 51.696-39.836 54.352-6.738 1.13-11.283 7.514-10.145 14.252s7.563 11.291 14.26 10.145c25.625-4.314 56.917-21.213 60.422-77.206 3.316-53.139-42.352-99.409-101.8-103.128-2.557-0.148-5.089-0.231-7.604-0.231zM515.815 270.408h-6.318c-17.048 0-27.696 12.503-31.3 19.893-13.204 25.271-26.12 26.549-36.504 27.58-3.563 0.355-6.928 0.685-10.26 1.847-14.433 5.006-17.831 19.992-17.567 28.050-0.008 13.51 10.4 22.194 16.883 25.32 25.436 13.592 79.128 12.941 85.181 12.809 6.829-0.132 12.248-5.782 12.124-12.611-0.148-6.829-5.798-12.413-12.611-12.124-14.788 0.239-56.612-0.948-73.189-9.98-0.256-0.14-0.511-0.264-0.775-0.388v0c0.033 0-2.878-1.674-2.878-3.439 0-1.707 0.528-3.819 1.039-4.346 0.594-0.132 2.845-0.355 4.495-0.52 12.8-1.27 36.603-3.629 56.15-41.057 0.19-0.379 3.406-6.293 9.213-6.293h6.318c6.829 0 12.371-5.534 12.371-12.371s-5.542-12.371-12.371-12.371zM593.548 334.995c-0.47 0-0.932 0.025-1.41 0.082-6.78 0.767-11.662 6.887-10.895 13.666v0c0.074 0.718 7.448 72.587-32.727 148.342-3.2 6.037-0.899 13.526 5.13 16.726 6.046 3.192 13.534 0.899 16.726-5.138 43.91-82.806 35.819-159.476 35.448-162.709-0.709-6.309-6.062-10.969-12.272-10.969zM511.237 112.862c-72.183 0-115.277 32.438-115.277 86.773 0 6.837 5.542 12.371 12.371 12.371s12.371-5.534 12.371-12.371c0-53.972 56.719-62.030 90.534-62.030 41.312 0 90.551 10.763 90.551 62.030 0 6.837 5.542 12.371 12.371 12.371s12.371-5.534 12.371-12.371c-0.008-55.144-42.022-86.773-115.294-86.773zM353.922 477.638c-26.26 0-47.614 21.361-47.614 47.614 0 13.518 5.782 26.45 15.86 35.481 8.742 7.827 20.009 12.132 31.729 12.132 0.016 0 0.033 0 0.041 0 26.252 0 47.605-21.353 47.605-47.605-0.008-26.26-21.37-47.622-47.622-47.622zM353.897 548.122c-5.633 0-11.035-2.062-15.225-5.823-4.85-4.338-7.629-10.557-7.629-17.048 0-12.611 10.26-22.871 22.871-22.871s22.871 10.26 22.871 22.871c0 12.611-10.26 22.862-22.871 22.862 0 0.008-0.008 0.008-0.016 0.008zM396.57 460.582c-3.456 0-6.895 1.435-9.345 4.248l-20.636 23.712c-4.487 5.155-3.942 12.974 1.212 17.452 5.155 4.495 12.965 3.942 17.452-1.204l20.636-23.712c4.487-5.155 3.942-12.974-1.212-17.452-2.342-2.045-5.237-3.043-8.107-3.043zM328.907 538.324c-3.456 0-6.895 1.435-9.345 4.256l-23.86 27.423c-4.487 5.155-3.942 12.965 1.212 17.452 5.163 4.487 12.965 3.942 17.452-1.212l23.86-27.423c4.487-5.155 3.942-12.965-1.212-17.452-2.334-2.045-5.229-3.043-8.107-3.043zM332.025 331.902c-6.054 0-11.332 4.454-12.223 10.59-0.148 0.85-5.501 29.287-47.754 66.608-52.405 46.286-88.093 138.601-54.913 225.49 2.441 6.384 9.584 9.592 15.976 7.142 6.375-2.433 9.584-9.592 7.142-15.976-28.85-75.556 3.283-158.462 48.183-198.116 49.568-43.778 55.383-77.99 55.878-81.742 0.891-6.771-3.868-12.998-10.639-13.897-0.553-0.066-1.097-0.099-1.65-0.099zM177.522 688.2c-2.202 0-4.412 0.577-6.417 1.806-49.461 30.087-68.084 91.763-42.401 140.391 12.042 22.73 31.894 38.879 55.902 45.486 25.98 7.134 54.261 2.54 79.672-12.932 15.506-9.444 28.858-22.442 38.632-37.609 3.703-5.74 2.045-13.402-3.695-17.097-5.732-3.703-13.394-2.054-17.097 3.695-7.753 12.033-18.376 22.368-30.706 29.873-19.539 11.901-40.949 15.522-60.241 10.202-17.369-4.775-31.786-16.561-40.603-33.188-19.572-37.073-4.916-84.381 33.386-107.697 5.839-3.555 7.695-11.167 4.14-16.998-2.326-3.819-6.4-5.93-10.573-5.93zM212.409 723.904c-2.095 0-4.206 0.528-6.12 1.625-15.357 8.759-25.568 24.1-27.316 41.048-1.377 13.246 2.59 25.7 11.192 35.044 8.553 9.279 20.751 14.202 33.683 13.963 17.774-0.363 34.805-10.425 44.446-26.244 2.928-4.817 2.235-11.011-1.691-15.060l-45.312-46.624c-2.392-2.466-5.617-3.753-8.883-3.753zM222.842 790.85c-5.782 0-10.895-2.111-14.466-5.988-3.72-4.050-5.419-9.633-4.784-15.736 0.61-5.963 3.382-11.728 7.654-16.314l29.906 30.772c-5.064 4.437-11.456 7.126-17.807 7.258-0.173 0.008-0.33 0.008-0.503 0.008zM254.942 844.154c-6.582 0-12.050 5.171-12.347 11.811-0.313 6.829 4.973 12.611 11.802 12.916 18.318 0.833 81.891 40.941 121.174 69.165 0.338 0.247 0.701 0.478 1.064 0.685 37.51 21.502 70.393 26.731 97.776 15.522 37.395-15.324 49.016-55.581 49.494-57.28 1.847-6.582-2.004-13.402-8.586-15.25-6.54-1.831-13.378 1.988-15.233 8.545-0.157 0.536-9.163 30.599-35.242 41.164-19.786 8.017-45.147 3.357-75.367-13.856-17.98-12.891-102.007-71.969-133.974-73.412-0.181 0-0.379-0.008-0.561-0.008zM510.635-64c-2.582 0-5.196 0.808-7.423 2.483-81.932 61.552-148.647 121.116-173.076 144.803-1.575-27.514-7.613-41.956-17.98-42.987-4.701-0.445-12.883 0.891-15.72 15.159-3.398 16.982-49.098 81.767-120.753 139.904-44.018 35.704-69.214 73.264-82.682 98.757-10.227-18.871-24.058-31.555-24.924-32.347-4.61-4.157-11.571-4.281-16.306-0.264-4.734 4.008-5.765 10.912-2.408 16.124 4.982 8-0.247 52.917-11.217 96.11-0.074 0.28-0.132 0.569-0.181 0.858-46.162 257.359 92.184 367.555 98.097 372.124 5.41 4.173 13.18 3.184 17.353-2.227 4.165-5.402 3.184-13.155-2.21-17.337v0c-1.344-1.031-132.102-106.271-88.984-347.761 3.868-15.242 9.98-41.873 12.487-66.369 2.219 5.287 3.827 10.928 4.33 16.726 0.511 5.914 5.163 10.631 11.077 11.233 5.831 0.635 11.406-3.076 13.105-8.775 0.173-0.586 19.382-61.931 88.052-117.636 53.56-43.465 93.668-90.567 114.271-122.931 0.165 2.705 0.256 5.254 0.256 7.472 0 1.485 0.264 2.953 0.792 4.338 2.037 5.443 6.961 11.736 14.648 13.097 3.843 0.676 11.365 0.536 18.697-8.017 8.124-9.477 82.559-78.476 178.14-150.28 5.46-4.107 6.565-11.86 2.458-17.32-2.433-3.233-6.144-4.94-9.897-4.94zM305.055 719.062c-2.73 0-5.476 0.899-7.761 2.746-5.32 4.297-6.144 12.083-1.856 17.394 30.401 37.609 72.274 44.059 99.359 43.696-5.114 3.769-11.72 7.497-20.116 10.359-4.957 1.691-8.314 6.301-8.388 11.53s3.151 9.947 8.050 11.769c3.612 1.344 88.967 32.331 144.795-20.479 4.965-4.693 5.18-12.528 0.487-17.485-4.693-4.973-12.536-5.171-17.493-0.487-26.632 25.196-63.762 25.823-89.478 22.17 10.029-8.165 15.679-16.405 18.235-20.759 5.303-4.891 4.61-10.788 4.198-12.71-0.503-2.351-3.035-10.12-14.623-11.274-1.377-0.132-2.788-0.041-4.14 0.289-2.557 0.602-63.911 14.483-101.619-32.182-2.466-3.002-6.046-4.577-9.65-4.577zM717.18 719.062c-3.612 0-7.184 1.567-9.633 4.594-37.708 46.682-99.062 32.793-101.652 32.174-1.328-0.313-2.755-0.421-4.107-0.28-11.588 1.155-14.128 8.924-14.623 11.274-0.412 1.922-1.105 7.819 4.198 12.71 2.557 4.355 8.206 12.602 18.235 20.759-25.724 3.654-62.839 3.035-89.478-22.17-4.965-4.693-12.8-4.487-17.493 0.487-4.693 4.965-4.478 12.792 0.487 17.485 55.812 52.81 141.183 21.823 144.795 20.479 4.899-1.823 8.116-6.532 8.050-11.769s-3.431-9.848-8.388-11.53c-8.396-2.862-15.002-6.59-20.116-10.359 27.077 0.379 68.967-6.078 99.359-43.696 4.297-5.32 3.464-13.105-1.856-17.394-2.301-1.864-5.048-2.763-7.778-2.763zM670.086 477.638c-26.26 0-47.614 21.361-47.614 47.614s21.361 47.605 47.614 47.605c0.016 0 0.033 0 0.041 0 11.72 0 22.978-4.305 31.72-12.124 10.079-9.015 15.86-21.947 15.86-35.481-0.008-26.252-21.37-47.614-47.622-47.614zM670.119 548.122c-0.008 0-0.016 0-0.025 0-12.619 0-22.879-10.26-22.879-22.862 0-12.611 10.26-22.871 22.871-22.871s22.871 10.26 22.871 22.871c0 6.507-2.779 12.718-7.621 17.040-4.198 3.753-9.6 5.823-15.217 5.823zM627.454 460.582c-2.878 0-5.765 0.998-8.107 3.035-5.155 4.478-5.699 12.297-1.212 17.452l20.619 23.712c4.487 5.155 12.297 5.699 17.452 1.212 5.155-4.478 5.699-12.297 1.212-17.452l-20.619-23.712c-2.45-2.812-5.889-4.248-9.345-4.248zM695.11 538.324c-2.878 0-5.765 0.998-8.107 3.035-5.155 4.487-5.699 12.297-1.212 17.452l23.86 27.423c4.487 5.155 12.289 5.699 17.452 1.212 5.155-4.487 5.699-12.297 1.212-17.452l-23.86-27.423c-2.45-2.804-5.889-4.248-9.345-4.248zM691.975 331.902c-0.544 0-1.097 0.033-1.65 0.107-6.771 0.899-11.53 7.126-10.631 13.897 0.511 3.761 6.334 37.956 55.894 81.734 44.892 39.655 77.033 122.568 48.166 198.116-2.441 6.375 0.759 13.534 7.142 15.976 6.342 2.417 13.526-0.751 15.976-7.142 33.188-86.88-2.491-179.204-54.896-225.49-42.871-37.873-47.712-66.187-47.745-66.468-0.833-6.21-6.153-10.73-12.256-10.73zM846.495 688.2c-4.173 0-8.248 2.111-10.573 5.938-3.555 5.839-1.699 13.444 4.14 16.998 38.31 23.308 52.958 70.616 33.362 107.706-8.8 16.619-23.217 28.405-40.587 33.18-19.283 5.311-40.702 1.699-60.249-10.202-12.338-7.514-22.945-17.84-30.681-29.865-3.703-5.749-11.365-7.398-17.097-3.711-5.74 3.695-7.406 11.349-3.711 17.097 9.757 15.159 23.11 28.166 38.624 37.617 25.427 15.473 53.75 20.075 79.68 12.924 24.009-6.606 43.853-22.747 55.886-45.469 25.708-48.644 7.093-110.312-42.376-140.408-2.004-1.229-4.223-1.806-6.417-1.806zM811.607 723.904c-3.266 0-6.483 1.287-8.874 3.753l-45.329 46.624c-3.942 4.041-4.635 10.244-1.699 15.060 9.641 15.819 26.665 25.881 44.446 26.244 13.229 0.264 25.139-4.676 33.675-13.947 8.611-9.345 12.586-21.798 11.217-35.061-1.765-16.941-11.967-32.281-27.308-41.040-1.922-1.097-4.033-1.633-6.128-1.633zM782.856 783.6l29.914-30.772c4.272 4.586 7.043 10.343 7.662 16.306 0.635 6.103-1.072 11.695-4.8 15.745-3.662 3.984-9.13 6.186-14.961 5.98-6.359-0.14-12.751-2.829-17.815-7.258zM769.066 844.154c-0.181 0-0.379 0-0.561 0.008-31.951 1.443-115.995 60.521-133.974 73.412-30.228 17.213-55.589 21.881-75.367 13.856-26.178-10.606-35.16-40.859-35.242-41.164-1.889-6.549-8.742-10.384-15.275-8.503-6.557 1.856-10.384 8.644-8.545 15.209 0.478 1.707 12.099 41.956 49.494 57.28 27.374 11.217 60.265 5.996 97.776-15.522 0.363-0.206 0.726-0.437 1.064-0.685 39.3-28.215 102.873-68.332 121.174-69.165 6.829-0.313 12.116-6.095 11.802-12.916-0.297-6.631-5.773-11.811-12.347-11.811zM513.39-64c-3.753 0-7.464 1.707-9.897 4.94-4.107 5.46-3.002 13.221 2.458 17.32 95.549 71.779 169.992 140.795 178.124 150.28 7.316 8.553 14.862 8.693 18.697 8.017 7.695-1.361 12.611-7.662 14.648-13.097 0.52-1.386 0.792-2.862 0.792-4.338 0-2.219 0.099-4.767 0.256-7.472 20.611 32.364 60.719 79.474 114.287 122.931 69.074 56.043 87.845 117.026 88.035 117.636 1.691 5.699 7.217 9.419 13.105 8.775 5.914-0.602 10.557-5.32 11.077-11.233 0.511-5.773 2.128-11.406 4.346-16.685 2.507 24.487 8.611 51.102 12.47 66.336 43.292 242.422-87.614 346.722-88.942 347.744-5.402 4.173-6.4 11.943-2.235 17.353 4.182 5.41 11.943 6.4 17.353 2.227 5.914-4.561 144.243-114.766 98.097-372.124-0.058-0.289-0.115-0.577-0.181-0.858-10.961-43.193-16.198-88.109-11.2-96.11 3.266-5.237 2.227-12.149-2.516-16.108s-11.621-3.893-16.19 0.247c-0.874 0.792-14.714 13.477-24.949 32.347-13.468-25.493-38.665-63.053-82.666-98.765-71.655-58.137-117.364-122.914-120.77-139.904-2.854-14.268-11.035-15.605-15.72-15.159-10.367 1.031-16.396 15.464-17.98 42.978-24.438-23.695-91.161-83.268-173.060-144.795-2.243-1.674-4.858-2.483-7.439-2.483z" />
</font>
</defs>
</svg>
